999
dxflib 2.0.4.8
  0
SECTION
  2
HEADER
  9
$ACADVER
  1
AC1015
  9
$HANDSEED
  5
FFFF
  9
$DIMADEC
 70
2
  9
$GRIDUNIT
 10
0.0
 20
0.0
  9
$DIMASZ
 40
5.0
  9
$DIMGAP
 40
5.0
  9
$LUNITS
 70
2
  9
$AUPREC
 70
2
  9
$SPLINESEGS
 70
8
  9
$INSUNITS
 70
4
  9
$DIMEXO
 40
5.0
  9
$DIMLUNIT
 70
2
  9
$DIMTXT
 40
10.0
  9
$GRIDMODE
 70
0
  9
$LUPREC
 70
4
  9
$DIMSTYLE
  2
Standard
  9
$PLIMMIN
 10
0.0
 20
0.0
  9
$PLIMMAX
 10
210.0
 20
297.0
  9
$DIMEXE
 40
1.25
  9
$DIMAUNIT
 70
0
  9
$AUNITS
 70
0
  0
ENDSEC
  0
SECTION
  2
TABLES
  0
TABLE
  2
VPORT
  5
8
100
AcDbSymbolTable
 70
1
  0
VPORT
  5
30
100
AcDbSymbolTableRecord
100
AcDbViewportTableRecord
  2
*Active
 70
0
 10
0.0
 20
0.0
 11
1.0
 21
1.0
 12
286.3055555555554861
 22
148.5
 13
0.0
 23
0.0
 14
10.0
 24
10.0
 15
10.0
 25
10.0
 16
0.0
 26
0.0
 36
1.0
 17
0.0
 27
0.0
 37
0.0
 40
297.0
 41
1.92798353909465
 42
50.0
 43
0.0
 44
0.0
 50
0.0
 51
0.0
 71
0
 72
100
 73
1
 74
3
 75
1
 76
1
 77
0
 78
0
281
0
 65
1
110
0.0
120
0.0
130
0.0
111
1.0
121
0.0
131
0.0
112
0.0
122
1.0
132
0.0
 79
0
146
0.0
  0
ENDTAB
  0
TABLE
  2
LTYPE
  5
5
100
AcDbSymbolTable
 70
21
  0
LTYPE
  5
14
100
AcDbSymbolTableRecord
100
AcDbLinetypeTableRecord
  2
ByBlock
 70
0
  3

 72
65
 73
0
 40
0.0
  0
LTYPE
  5
15
100
AcDbSymbolTableRecord
100
AcDbLinetypeTableRecord
  2
ByLayer
 70
0
  3

 72
65
 73
0
 40
0.0
  0
LTYPE
  5
16
100
AcDbSymbolTableRecord
100
AcDbLinetypeTableRecord
  2
CONTINUOUS
 70
0
  3
Solid line
 72
65
 73
0
 40
0.0
  0
LTYPE
  5
31
100
AcDbSymbolTableRecord
100
AcDbLinetypeTableRecord
  2
DOT
 70
0
  3
Dot . . . . . . . . . . . . . . . . . . . . . .
 72
65
 73
2
 40
6.3499999999999996
 49
0.0
 74
0
 49
-6.3499999999999996
 74
0
  0
LTYPE
  5
32
100
AcDbSymbolTableRecord
100
AcDbLinetypeTableRecord
  2
DOT2
 70
0
  3
Dot (.5x) .....................................
 72
65
 73
2
 40
3.1749999999999998
 49
0.0
 74
0
 49
-3.1749999999999998
 74
0
  0
LTYPE
  5
33
100
AcDbSymbolTableRecord
100
AcDbLinetypeTableRecord
  2
DOTX2
 70
0
  3
Dot (2x) .  .  .  .  .  .  .  .  .  .  .  .  .
 72
65
 73
2
 40
12.6999999999999993
 49
0.0
 74
0
 49
-12.6999999999999993
 74
0
  0
LTYPE
  5
34
100
AcDbSymbolTableRecord
100
AcDbLinetypeTableRecord
  2
DASHED
 70
0
  3
Dashed __ __ __ __ __ __ __ __ __ __ __ __ __ _
 72
65
 73
2
 40
19.0500000000000007
 49
12.6999999999999993
 74
0
 49
-6.3499999999999996
 74
0
  0
LTYPE
  5
35
100
AcDbSymbolTableRecord
100
AcDbLinetypeTableRecord
  2
DASHED2
 70
0
  3
Dashed (.5x) _ _ _ _ _ _ _ _ _ _ _ _ _ _ _ _ _
 72
65
 73
2
 40
9.5250000000000004
 49
6.3499999999999996
 74
0
 49
-3.1749999999999998
 74
0
  0
LTYPE
  5
36
100
AcDbSymbolTableRecord
100
AcDbLinetypeTableRecord
  2
DASHEDX2
 70
0
  3
Dashed (2x) ____  ____  ____  ____  ____  ___
 72
65
 73
2
 40
38.1000000000000014
 49
25.3999999999999986
 74
0
 49
-12.6999999999999993
 74
0
  0
LTYPE
  5
37
100
AcDbSymbolTableRecord
100
AcDbLinetypeTableRecord
  2
DASHDOT
 70
0
  3
Dash dot __ . __ . __ . __ . __ . __ . __ . __
 72
65
 73
4
 40
25.3999999999999986
 49
12.6999999999999993
 74
0
 49
-6.3499999999999996
 74
0
 49
0.0
 74
0
 49
-6.3499999999999996
 74
0
  0
LTYPE
  5
38
100
AcDbSymbolTableRecord
100
AcDbLinetypeTableRecord
  2
DASHDOT2
 70
0
  3
Dash dot (.5x) _._._._._._._._._._._._._._._.
 72
65
 73
4
 40
12.6999999999999993
 49
6.3499999999999996
 74
0
 49
-3.1749999999999998
 74
0
 49
0.0
 74
0
 49
-3.1749999999999998
 74
0
  0
LTYPE
  5
39
100
AcDbSymbolTableRecord
100
AcDbLinetypeTableRecord
  2
DASHDOTX2
 70
0
  3
Dash dot (2x) ____  .  ____  .  ____  .  ___
 72
65
 73
4
 40
50.7999999999999972
 49
25.3999999999999986
 74
0
 49
-12.6999999999999993
 74
0
 49
0.0
 74
0
 49
-12.6999999999999993
 74
0
  0
LTYPE
  5
3A
100
AcDbSymbolTableRecord
100
AcDbLinetypeTableRecord
  2
DIVIDE
 70
0
  3
Divide ____ . . ____ . . ____ . . ____ . . ____
 72
65
 73
6
 40
31.75
 49
12.6999999999999993
 74
0
 49
-6.3499999999999996
 74
0
 49
0.0
 74
0
 49
-6.3499999999999996
 74
0
 49
0.0
 74
0
 49
-6.3499999999999996
 74
0
  0
LTYPE
  5
3B
100
AcDbSymbolTableRecord
100
AcDbLinetypeTableRecord
  2
DIVIDE2
 70
0
  3
Divide (.5x) __..__..__..__..__..__..__..__.._
 72
65
 73
6
 40
15.875
 49
6.3499999999999996
 74
0
 49
-3.1749999999999998
 74
0
 49
0.0
 74
0
 49
-3.1749999999999998
 74
0
 49
0.0
 74
0
 49
-3.1749999999999998
 74
0
  0
LTYPE
  5
3C
100
AcDbSymbolTableRecord
100
AcDbLinetypeTableRecord
  2
DIVIDEX2
 70
0
  3
Divide (2x) ________  .  .  ________  .  .  _
 72
65
 73
6
 40
63.5
 49
25.3999999999999986
 74
0
 49
-12.6999999999999993
 74
0
 49
0.0
 74
0
 49
-12.6999999999999993
 74
0
 49
0.0
 74
0
 49
-12.6999999999999993
 74
0
  0
LTYPE
  5
3D
100
AcDbSymbolTableRecord
100
AcDbLinetypeTableRecord
  2
CENTER
 70
0
  3
Center ____ _ ____ _ ____ _ ____ _ ____ _ ____
 72
65
 73
4
 40
50.7999999999999972
 49
31.75
 74
0
 49
-6.3499999999999996
 74
0
 49
6.3499999999999996
 74
0
 49
-6.3499999999999996
 74
0
  0
LTYPE
  5
3E
100
AcDbSymbolTableRecord
100
AcDbLinetypeTableRecord
  2
CENTER2
 70
0
  3
Center (.5x) ___ _ ___ _ ___ _ ___ _ ___ _ ___
 72
65
 73
4
 40
28.5749999999999993
 49
19.0500000000000007
 74
0
 49
-3.1749999999999998
 74
0
 49
3.1749999999999998
 74
0
 49
-3.1749999999999998
 74
0
  0
LTYPE
  5
3F
100
AcDbSymbolTableRecord
100
AcDbLinetypeTableRecord
  2
CENTERX2
 70
0
  3
Center (2x) ________  __  ________  __  _____
 72
65
 73
4
 40
101.5999999999999943
 49
63.5
 74
0
 49
-12.6999999999999993
 74
0
 49
12.6999999999999993
 74
0
 49
-12.6999999999999993
 74
0
  0
LTYPE
  5
40
100
AcDbSymbolTableRecord
100
AcDbLinetypeTableRecord
  2
BORDER
 70
0
  3
Border __ __ . __ __ . __ __ . __ __ . __ __ .
 72
65
 73
6
 40
44.4500000000000028
 49
12.6999999999999993
 74
0
 49
-6.3499999999999996
 74
0
 49
12.6999999999999993
 74
0
 49
-6.3499999999999996
 74
0
 49
0.0
 74
0
 49
-6.3499999999999996
 74
0
  0
LTYPE
  5
41
100
AcDbSymbolTableRecord
100
AcDbLinetypeTableRecord
  2
BORDER2
 70
0
  3
Border (.5x) __.__.__.__.__.__.__.__.__.__.__.
 72
65
 73
6
 40
22.2250000000000014
 49
6.3499999999999996
 74
0
 49
-3.1749999999999998
 74
0
 49
6.3499999999999996
 74
0
 49
-3.1749999999999998
 74
0
 49
0.0
 74
0
 49
-3.1749999999999998
 74
0
  0
LTYPE
  5
42
100
AcDbSymbolTableRecord
100
AcDbLinetypeTableRecord
  2
BORDERX2
 70
0
  3
Border (2x) ____  ____  .  ____  ____  .  ___
 72
65
 73
6
 40
88.9000000000000057
 49
25.3999999999999986
 74
0
 49
-12.6999999999999993
 74
0
 49
25.3999999999999986
 74
0
 49
-12.6999999999999993
 74
0
 49
0.0
 74
0
 49
-12.6999999999999993
 74
0
  0
ENDTAB
  0
TABLE
  2
LAYER
  5
2
100
AcDbSymbolTable
 70
6
  0
LAYER
  5
10
100
AcDbSymbolTableRecord
100
AcDbLayerTableRecord
  2
0
 70
0
 62
7
  6
CONTINUOUS
370
0
390
F
  0
LAYER
  5
43
100
AcDbSymbolTableRecord
100
AcDbLayerTableRecord
  2
Platine
 70
0
 62
3
  6
CONTINUOUS
370
0
390
F
  0
LAYER
  5
44
100
AcDbSymbolTableRecord
100
AcDbLayerTableRecord
  2
Display
 70
0
 62
4
  6
CONTINUOUS
370
0
390
F
  0
LAYER
  5
45
100
AcDbSymbolTableRecord
100
AcDbLayerTableRecord
  2
active_area
 70
0
 62
2
  6
CONTINUOUS
370
0
390
F
  0
LAYER
  5
46
100
AcDbSymbolTableRecord
100
AcDbLayerTableRecord
  2
Steckverbinder
 70
0
 62
8
  6
CONTINUOUS
370
0
390
F
  0
LAYER
  5
47
100
AcDbSymbolTableRecord
100
AcDbLayerTableRecord
  2
viewing_direction
 70
0
 62
1
  6
CONTINUOUS
370
0
390
F
  0
ENDTAB
  0
TABLE
  2
STYLE
  5
3
100
AcDbSymbolTable
 70
1
  0
STYLE
  5
11
100
AcDbSymbolTableRecord
100
AcDbTextStyleTableRecord
  2
Standard
 70
0
 40
0.0
 41
0.75
 50
0.0
 71
0
 42
2.5
  3
txt
  4

  0
ENDTAB
  0
TABLE
  2
VIEW
  5
6
100
AcDbSymbolTable
 70
0
  0
ENDTAB
  0
TABLE
  2
UCS
  5
7
100
AcDbSymbolTable
 70
0
  0
ENDTAB
  0
TABLE
  2
APPID
  5
9
100
AcDbSymbolTable
 70
1
  0
APPID
  5
12
100
AcDbSymbolTableRecord
100
AcDbRegAppTableRecord
  2
ACAD
 70
0
  0
ENDTAB
  0
TABLE
  2
DIMSTYLE
  5
A
100
AcDbSymbolTable
 70
1
100
AcDbDimStyleTable
 71
0
  0
DIMSTYLE
105
27
100
AcDbSymbolTableRecord
100
AcDbDimStyleTableRecord
  2
Standard
 41
5.0
 42
5.0
 43
3.75
 44
1.25
 70
0
 73
0
 74
0
 77
1
 78
8
140
10.0
141
2.5
143
0.03937007874016
147
5.0
171
3
172
1
271
2
272
2
274
3
278
44
283
0
284
8
340
11
  0
ENDTAB
  0
TABLE
  2
BLOCK_RECORD
  5
1
100
AcDbSymbolTable
 70
1
  0
BLOCK_RECORD
  5
1F
100
AcDbSymbolTableRecord
100
AcDbBlockTableRecord
  2
*Model_Space
340
22
  0
BLOCK_RECORD
  5
1B
100
AcDbSymbolTableRecord
100
AcDbBlockTableRecord
  2
*Paper_Space
340
1E
  0
BLOCK_RECORD
  5
23
100
AcDbSymbolTableRecord
100
AcDbBlockTableRecord
  2
*Paper_Space0
340
26
  0
BLOCK_RECORD
  5
48
100
AcDbSymbolTableRecord
100
AcDbBlockTableRecord
  2
header2x20-t
340
0
  0
BLOCK_RECORD
  5
49
100
AcDbSymbolTableRecord
100
AcDbBlockTableRecord
  2
header2x20-s
340
0
  0
BLOCK_RECORD
  5
4A
100
AcDbSymbolTableRecord
100
AcDbBlockTableRecord
  2
wannenstecker2x20-t
340
0
  0
BLOCK_RECORD
  5
4B
100
AcDbSymbolTableRecord
100
AcDbBlockTableRecord
  2
wannenstecker2x20-s
340
0
  0
BLOCK_RECORD
  5
4C
100
AcDbSymbolTableRecord
100
AcDbBlockTableRecord
  2
viewing_direction
340
0
  0
ENDTAB
  0
ENDSEC
  0
SECTION
  2
BLOCKS
  0
BLOCK
  5
20
100
AcDbEntity
  8
0
100
AcDbBlockBegin
  2
*Model_Space
 70
0
 10
0.0
 20
0.0
 30
0.0
  3
*Model_Space
  1

  0
ENDBLK
  5
21
100
AcDbEntity
  8
0
100
AcDbBlockEnd
  0
BLOCK
  5
1C
100
AcDbEntity
 67
1
  8
0
100
AcDbBlockBegin
  2
*Paper_Space
 70
0
 10
0.0
 20
0.0
 30
0.0
  3
*Paper_Space
  1

  0
ENDBLK
  5
1D
100
AcDbEntity
 67
1
  8
0
100
AcDbBlockEnd
  0
BLOCK
  5
24
100
AcDbEntity
  8
0
100
AcDbBlockBegin
  2
*Paper_Space0
 70
0
 10
0.0
 20
0.0
 30
0.0
  3
*Paper_Space0
  1

  0
ENDBLK
  5
25
100
AcDbEntity
  8
0
100
AcDbBlockEnd
  0
BLOCK
  5
4D
100
AcDbEntity
  8
0
100
AcDbBlockBegin
  2
header2x20-t
 70
0
 10
0.0
 20
0.0
 30
0.0
  3
header2x20-t
  1

  0
CIRCLE
  5
4E
100
AcDbEntity
100
AcDbCircle
  8
Steckverbinder
 62
256
370
-1
  6
ByLayer
 10
2.5400000000000063
 20
48.259999999999998
 30
0.0
 40
0.3
  0
CIRCLE
  5
4F
100
AcDbEntity
100
AcDbCircle
  8
Steckverbinder
 62
256
370
-1
  6
ByLayer
 10
0.0
 20
48.259999999999998
 30
0.0
 40
0.3
  0
CIRCLE
  5
50
100
AcDbEntity
100
AcDbCircle
  8
Steckverbinder
 62
256
370
-1
  6
ByLayer
 10
2.5400000000000063
 20
45.7199999999999989
 30
0.0
 40
0.3
  0
CIRCLE
  5
51
100
AcDbEntity
100
AcDbCircle
  8
Steckverbinder
 62
256
370
-1
  6
ByLayer
 10
0.0
 20
45.7199999999999989
 30
0.0
 40
0.3
  0
CIRCLE
  5
52
100
AcDbEntity
100
AcDbCircle
  8
Steckverbinder
 62
256
370
-1
  6
ByLayer
 10
2.5400000000000063
 20
43.1799999999999997
 30
0.0
 40
0.3
  0
CIRCLE
  5
53
100
AcDbEntity
100
AcDbCircle
  8
Steckverbinder
 62
256
370
-1
  6
ByLayer
 10
0.0
 20
43.1799999999999997
 30
0.0
 40
0.3
  0
CIRCLE
  5
54
100
AcDbEntity
100
AcDbCircle
  8
Steckverbinder
 62
256
370
-1
  6
ByLayer
 10
2.5400000000000063
 20
40.6400000000000006
 30
0.0
 40
0.3
  0
CIRCLE
  5
55
100
AcDbEntity
100
AcDbCircle
  8
Steckverbinder
 62
256
370
-1
  6
ByLayer
 10
0.0
 20
40.6400000000000006
 30
0.0
 40
0.3
  0
CIRCLE
  5
56
100
AcDbEntity
100
AcDbCircle
  8
Steckverbinder
 62
256
370
-1
  6
ByLayer
 10
2.5400000000000063
 20
38.1000000000000014
 30
0.0
 40
0.3
  0
CIRCLE
  5
57
100
AcDbEntity
100
AcDbCircle
  8
Steckverbinder
 62
256
370
-1
  6
ByLayer
 10
0.0
 20
38.1000000000000014
 30
0.0
 40
0.3
  0
CIRCLE
  5
58
100
AcDbEntity
100
AcDbCircle
  8
Steckverbinder
 62
256
370
-1
  6
ByLayer
 10
2.5400000000000063
 20
35.5599999999999952
 30
0.0
 40
0.3
  0
CIRCLE
  5
59
100
AcDbEntity
100
AcDbCircle
  8
Steckverbinder
 62
256
370
-1
  6
ByLayer
 10
0.0
 20
35.5599999999999952
 30
0.0
 40
0.3
  0
CIRCLE
  5
5A
100
AcDbEntity
100
AcDbCircle
  8
Steckverbinder
 62
256
370
-1
  6
ByLayer
 10
2.5400000000000063
 20
33.019999999999996
 30
0.0
 40
0.3
  0
CIRCLE
  5
5B
100
AcDbEntity
100
AcDbCircle
  8
Steckverbinder
 62
256
370
-1
  6
ByLayer
 10
0.0
 20
33.019999999999996
 30
0.0
 40
0.3
  0
CIRCLE
  5
5C
100
AcDbEntity
100
AcDbCircle
  8
Steckverbinder
 62
256
370
-1
  6
ByLayer
 10
2.5400000000000063
 20
30.4799999999999969
 30
0.0
 40
0.3
  0
CIRCLE
  5
5D
100
AcDbEntity
100
AcDbCircle
  8
Steckverbinder
 62
256
370
-1
  6
ByLayer
 10
0.0
 20
30.4799999999999969
 30
0.0
 40
0.3
  0
CIRCLE
  5
5E
100
AcDbEntity
100
AcDbCircle
  8
Steckverbinder
 62
256
370
-1
  6
ByLayer
 10
2.5400000000000063
 20
27.9399999999999977
 30
0.0
 40
0.3
  0
CIRCLE
  5
5F
100
AcDbEntity
100
AcDbCircle
  8
Steckverbinder
 62
256
370
-1
  6
ByLayer
 10
0.0
 20
27.9399999999999977
 30
0.0
 40
0.3
  0
CIRCLE
  5
60
100
AcDbEntity
100
AcDbCircle
  8
Steckverbinder
 62
256
370
-1
  6
ByLayer
 10
2.5400000000000063
 20
25.3999999999999986
 30
0.0
 40
0.3
  0
CIRCLE
  5
61
100
AcDbEntity
100
AcDbCircle
  8
Steckverbinder
 62
256
370
-1
  6
ByLayer
 10
0.0
 20
25.3999999999999986
 30
0.0
 40
0.3
  0
CIRCLE
  5
62
100
AcDbEntity
100
AcDbCircle
  8
Steckverbinder
 62
256
370
-1
  6
ByLayer
 10
2.5400000000000063
 20
22.8599999999999994
 30
0.0
 40
0.3
  0
CIRCLE
  5
63
100
AcDbEntity
100
AcDbCircle
  8
Steckverbinder
 62
256
370
-1
  6
ByLayer
 10
0.0
 20
22.8599999999999994
 30
0.0
 40
0.3
  0
CIRCLE
  5
64
100
AcDbEntity
100
AcDbCircle
  8
Steckverbinder
 62
256
370
-1
  6
ByLayer
 10
2.5400000000000063
 20
20.3199999999999967
 30
0.0
 40
0.3
  0
CIRCLE
  5
65
100
AcDbEntity
100
AcDbCircle
  8
Steckverbinder
 62
256
370
-1
  6
ByLayer
 10
0.0
 20
20.3199999999999967
 30
0.0
 40
0.3
  0
CIRCLE
  5
66
100
AcDbEntity
100
AcDbCircle
  8
Steckverbinder
 62
256
370
-1
  6
ByLayer
 10
2.5400000000000063
 20
17.7799999999999976
 30
0.0
 40
0.3
  0
CIRCLE
  5
67
100
AcDbEntity
100
AcDbCircle
  8
Steckverbinder
 62
256
370
-1
  6
ByLayer
 10
0.0
 20
17.7799999999999976
 30
0.0
 40
0.3
  0
CIRCLE
  5
68
100
AcDbEntity
100
AcDbCircle
  8
Steckverbinder
 62
256
370
-1
  6
ByLayer
 10
2.5400000000000063
 20
15.2399999999999949
 30
0.0
 40
0.3
  0
CIRCLE
  5
69
100
AcDbEntity
100
AcDbCircle
  8
Steckverbinder
 62
256
370
-1
  6
ByLayer
 10
0.0
 20
15.2399999999999949
 30
0.0
 40
0.3
  0
CIRCLE
  5
6A
100
AcDbEntity
100
AcDbCircle
  8
Steckverbinder
 62
256
370
-1
  6
ByLayer
 10
2.5400000000000063
 20
12.6999999999999957
 30
0.0
 40
0.3
  0
CIRCLE
  5
6B
100
AcDbEntity
100
AcDbCircle
  8
Steckverbinder
 62
256
370
-1
  6
ByLayer
 10
0.0
 20
12.6999999999999957
 30
0.0
 40
0.3
  0
CIRCLE
  5
6C
100
AcDbEntity
100
AcDbCircle
  8
Steckverbinder
 62
256
370
-1
  6
ByLayer
 10
2.5400000000000063
 20
10.1599999999999966
 30
0.0
 40
0.3
  0
CIRCLE
  5
6D
100
AcDbEntity
100
AcDbCircle
  8
Steckverbinder
 62
256
370
-1
  6
ByLayer
 10
0.0
 20
10.1599999999999966
 30
0.0
 40
0.3
  0
CIRCLE
  5
6E
100
AcDbEntity
100
AcDbCircle
  8
Steckverbinder
 62
256
370
-1
  6
ByLayer
 10
2.5400000000000063
 20
7.6199999999999974
 30
0.0
 40
0.3
  0
CIRCLE
  5
6F
100
AcDbEntity
100
AcDbCircle
  8
Steckverbinder
 62
256
370
-1
  6
ByLayer
 10
0.0
 20
7.6199999999999974
 30
0.0
 40
0.3
  0
CIRCLE
  5
70
100
AcDbEntity
100
AcDbCircle
  8
Steckverbinder
 62
256
370
-1
  6
ByLayer
 10
2.5400000000000063
 20
5.0799999999999983
 30
0.0
 40
0.3
  0
CIRCLE
  5
71
100
AcDbEntity
100
AcDbCircle
  8
Steckverbinder
 62
256
370
-1
  6
ByLayer
 10
0.0
 20
5.0799999999999983
 30
0.0
 40
0.3
  0
CIRCLE
  5
72
100
AcDbEntity
100
AcDbCircle
  8
Steckverbinder
 62
256
370
-1
  6
ByLayer
 10
2.5400000000000063
 20
2.5399999999999991
 30
0.0
 40
0.3
  0
CIRCLE
  5
73
100
AcDbEntity
100
AcDbCircle
  8
Steckverbinder
 62
256
370
-1
  6
ByLayer
 10
0.0
 20
2.5399999999999991
 30
0.0
 40
0.3
  0
CIRCLE
  5
74
100
AcDbEntity
100
AcDbCircle
  8
Steckverbinder
 62
256
370
-1
  6
ByLayer
 10
2.5400000000000063
 20
0.0
 30
0.0
 40
0.3
  0
CIRCLE
  5
75
100
AcDbEntity
100
AcDbCircle
  8
Steckverbinder
 62
256
370
-1
  6
ByLayer
 10
0.0
 20
0.0
 30
0.0
 40
0.3
  0
ENDBLK
  5
76
100
AcDbEntity
  8
0
100
AcDbBlockEnd
  0
BLOCK
  5
77
100
AcDbEntity
  8
0
100
AcDbBlockBegin
  2
header2x20-s
 70
0
 10
0.0
 20
0.0
 30
0.0
  3
header2x20-s
  1

  0
LINE
  5
78
100
AcDbEntity
100
AcDbLine
  8
Steckverbinder
 62
256
370
-1
  6
ByLayer
 10
-0.3000000000000114
 20
-8.3000000000000398
 30
0.0
 11
0.2999999999999829
 21
-8.3000000000000398
 31
0.0
  0
LINE
  5
79
100
AcDbEntity
100
AcDbLine
  8
Steckverbinder
 62
256
370
-1
  6
ByLayer
 10
0.2999999999999829
 20
-8.3000000000000398
 30
0.0
 11
0.2999999999999829
 21
3.1999999999999602
 31
0.0
  0
LINE
  5
7A
100
AcDbEntity
100
AcDbLine
  8
Steckverbinder
 62
256
370
-1
  6
ByLayer
 10
0.2999999999999829
 20
3.1999999999999602
 30
0.0
 11
-0.3000000000000114
 21
3.1999999999999602
 31
0.0
  0
LINE
  5
7B
100
AcDbEntity
100
AcDbLine
  8
Steckverbinder
 62
256
370
-1
  6
ByLayer
 10
-0.3000000000000114
 20
3.1999999999999602
 30
0.0
 11
-0.3000000000000114
 21
-8.3000000000000398
 31
0.0
  0
LINE
  5
7C
100
AcDbEntity
100
AcDbLine
  8
Steckverbinder
 62
256
370
-1
  6
ByLayer
 10
2.1999999999999886
 20
-8.3000000000000398
 30
0.0
 11
2.7999999999999829
 21
-8.3000000000000398
 31
0.0
  0
LINE
  5
7D
100
AcDbEntity
100
AcDbLine
  8
Steckverbinder
 62
256
370
-1
  6
ByLayer
 10
2.7999999999999829
 20
-8.3000000000000398
 30
0.0
 11
2.7999999999999829
 21
3.1999999999999602
 31
0.0
  0
LINE
  5
7E
100
AcDbEntity
100
AcDbLine
  8
Steckverbinder
 62
256
370
-1
  6
ByLayer
 10
2.7999999999999829
 20
3.1999999999999602
 30
0.0
 11
2.1999999999999886
 21
3.1999999999999602
 31
0.0
  0
LINE
  5
7F
100
AcDbEntity
100
AcDbLine
  8
Steckverbinder
 62
256
370
-1
  6
ByLayer
 10
2.1999999999999886
 20
3.1999999999999602
 30
0.0
 11
2.1999999999999886
 21
-8.3000000000000398
 31
0.0
  0
LINE
  5
80
100
AcDbEntity
100
AcDbLine
  8
Steckverbinder
 62
256
370
-1
  6
ByLayer
 10
-1.2500000000000142
 20
-2.5000000000000284
 30
0.0
 11
3.7499999999999858
 21
-2.5000000000000284
 31
0.0
  0
LINE
  5
81
100
AcDbEntity
100
AcDbLine
  8
Steckverbinder
 62
256
370
-1
  6
ByLayer
 10
-1.2500000000000142
 20
-2.5000000000000284
 30
0.0
 11
-1.2500000000000142
 21
-0.0000000000000284
 31
0.0
  0
LINE
  5
82
100
AcDbEntity
100
AcDbLine
  8
Steckverbinder
 62
256
370
-1
  6
ByLayer
 10
3.7499999999999858
 20
-2.5000000000000284
 30
0.0
 11
3.7499999999999858
 21
-0.0000000000000284
 31
0.0
  0
LINE
  5
83
100
AcDbEntity
100
AcDbLine
  8
Steckverbinder
 62
256
370
-1
  6
ByLayer
 10
-1.2500000000000142
 20
-0.0000000000000284
 30
0.0
 11
3.7499999999999858
 21
-0.0000000000000284
 31
0.0
  0
LINE
  5
84
100
AcDbEntity
100
AcDbLine
  8
Steckverbinder
 62
256
370
-1
  6
ByLayer
 10
2.1999999999999886
 20
-0.0000000000000284
 30
0.0
 11
2.7999999999999829
 21
-0.0000000000000284
 31
0.0
  0
LINE
  5
85
100
AcDbEntity
100
AcDbLine
  8
Steckverbinder
 62
256
370
-1
  6
ByLayer
 10
-0.3000000000000114
 20
-0.0000000000000284
 30
0.0
 11
0.2999999999999829
 21
-0.0000000000000284
 31
0.0
  0
ENDBLK
  5
86
100
AcDbEntity
  8
0
100
AcDbBlockEnd
  0
BLOCK
  5
87
100
AcDbEntity
  8
0
100
AcDbBlockBegin
  2
wannenstecker2x20-t
 70
0
 10
0.0
 20
0.0
 30
0.0
  3
wannenstecker2x20-t
  1

  0
CIRCLE
  5
88
100
AcDbEntity
100
AcDbCircle
  8
Steckverbinder
 62
256
370
-1
  6
ByLayer
 10
2.5400000000000205
 20
48.2599999999999909
 30
0.0
 40
0.3
  0
CIRCLE
  5
89
100
AcDbEntity
100
AcDbCircle
  8
Steckverbinder
 62
256
370
-1
  6
ByLayer
 10
0.0
 20
48.2599999999999909
 30
0.0
 40
0.3
  0
CIRCLE
  5
8A
100
AcDbEntity
100
AcDbCircle
  8
Steckverbinder
 62
256
370
-1
  6
ByLayer
 10
2.5400000000000205
 20
45.7199999999999989
 30
0.0
 40
0.3
  0
CIRCLE
  5
8B
100
AcDbEntity
100
AcDbCircle
  8
Steckverbinder
 62
256
370
-1
  6
ByLayer
 10
0.0
 20
45.7199999999999989
 30
0.0
 40
0.3
  0
CIRCLE
  5
8C
100
AcDbEntity
100
AcDbCircle
  8
Steckverbinder
 62
256
370
-1
  6
ByLayer
 10
2.5400000000000205
 20
43.1800000000000068
 30
0.0
 40
0.3
  0
CIRCLE
  5
8D
100
AcDbEntity
100
AcDbCircle
  8
Steckverbinder
 62
256
370
-1
  6
ByLayer
 10
0.0
 20
43.1800000000000068
 30
0.0
 40
0.3
  0
CIRCLE
  5
8E
100
AcDbEntity
100
AcDbCircle
  8
Steckverbinder
 62
256
370
-1
  6
ByLayer
 10
2.5400000000000205
 20
40.6399999999999864
 30
0.0
 40
0.3
  0
CIRCLE
  5
8F
100
AcDbEntity
100
AcDbCircle
  8
Steckverbinder
 62
256
370
-1
  6
ByLayer
 10
0.0
 20
40.6399999999999864
 30
0.0
 40
0.3
  0
CIRCLE
  5
90
100
AcDbEntity
100
AcDbCircle
  8
Steckverbinder
 62
256
370
-1
  6
ByLayer
 10
2.5400000000000205
 20
38.0999999999999943
 30
0.0
 40
0.3
  0
CIRCLE
  5
91
100
AcDbEntity
100
AcDbCircle
  8
Steckverbinder
 62
256
370
-1
  6
ByLayer
 10
0.0
 20
38.0999999999999943
 30
0.0
 40
0.3
  0
CIRCLE
  5
92
100
AcDbEntity
100
AcDbCircle
  8
Steckverbinder
 62
256
370
-1
  6
ByLayer
 10
2.5400000000000205
 20
35.5600000000000023
 30
0.0
 40
0.3
  0
CIRCLE
  5
93
100
AcDbEntity
100
AcDbCircle
  8
Steckverbinder
 62
256
370
-1
  6
ByLayer
 10
0.0
 20
35.5600000000000023
 30
0.0
 40
0.3
  0
CIRCLE
  5
94
100
AcDbEntity
100
AcDbCircle
  8
Steckverbinder
 62
256
370
-1
  6
ByLayer
 10
2.5400000000000205
 20
33.0199999999999818
 30
0.0
 40
0.3
  0
CIRCLE
  5
95
100
AcDbEntity
100
AcDbCircle
  8
Steckverbinder
 62
256
370
-1
  6
ByLayer
 10
0.0
 20
33.0199999999999818
 30
0.0
 40
0.3
  0
CIRCLE
  5
96
100
AcDbEntity
100
AcDbCircle
  8
Steckverbinder
 62
256
370
-1
  6
ByLayer
 10
2.5400000000000205
 20
30.4799999999999898
 30
0.0
 40
0.3
  0
CIRCLE
  5
97
100
AcDbEntity
100
AcDbCircle
  8
Steckverbinder
 62
256
370
-1
  6
ByLayer
 10
0.0
 20
30.4799999999999898
 30
0.0
 40
0.3
  0
CIRCLE
  5
98
100
AcDbEntity
100
AcDbCircle
  8
Steckverbinder
 62
256
370
-1
  6
ByLayer
 10
2.5400000000000205
 20
27.9399999999999977
 30
0.0
 40
0.3
  0
CIRCLE
  5
99
100
AcDbEntity
100
AcDbCircle
  8
Steckverbinder
 62
256
370
-1
  6
ByLayer
 10
0.0
 20
27.9399999999999977
 30
0.0
 40
0.3
  0
CIRCLE
  5
9A
100
AcDbEntity
100
AcDbCircle
  8
Steckverbinder
 62
256
370
-1
  6
ByLayer
 10
2.5400000000000205
 20
25.4000000000000057
 30
0.0
 40
0.3
  0
CIRCLE
  5
9B
100
AcDbEntity
100
AcDbCircle
  8
Steckverbinder
 62
256
370
-1
  6
ByLayer
 10
0.0
 20
25.4000000000000057
 30
0.0
 40
0.3
  0
CIRCLE
  5
9C
100
AcDbEntity
100
AcDbCircle
  8
Steckverbinder
 62
256
370
-1
  6
ByLayer
 10
2.5400000000000205
 20
22.8600000000000136
 30
0.0
 40
0.3
  0
CIRCLE
  5
9D
100
AcDbEntity
100
AcDbCircle
  8
Steckverbinder
 62
256
370
-1
  6
ByLayer
 10
0.0
 20
22.8600000000000136
 30
0.0
 40
0.3
  0
CIRCLE
  5
9E
100
AcDbEntity
100
AcDbCircle
  8
Steckverbinder
 62
256
370
-1
  6
ByLayer
 10
2.5400000000000205
 20
20.3199999999999932
 30
0.0
 40
0.3
  0
CIRCLE
  5
9F
100
AcDbEntity
100
AcDbCircle
  8
Steckverbinder
 62
256
370
-1
  6
ByLayer
 10
0.0
 20
20.3199999999999932
 30
0.0
 40
0.3
  0
CIRCLE
  5
A0
100
AcDbEntity
100
AcDbCircle
  8
Steckverbinder
 62
256
370
-1
  6
ByLayer
 10
2.5400000000000205
 20
17.7800000000000011
 30
0.0
 40
0.3
  0
CIRCLE
  5
A1
100
AcDbEntity
100
AcDbCircle
  8
Steckverbinder
 62
256
370
-1
  6
ByLayer
 10
0.0
 20
17.7800000000000011
 30
0.0
 40
0.3
  0
CIRCLE
  5
A2
100
AcDbEntity
100
AcDbCircle
  8
Steckverbinder
 62
256
370
-1
  6
ByLayer
 10
2.5400000000000205
 20
15.2400000000000091
 30
0.0
 40
0.3
  0
CIRCLE
  5
A3
100
AcDbEntity
100
AcDbCircle
  8
Steckverbinder
 62
256
370
-1
  6
ByLayer
 10
0.0
 20
15.2400000000000091
 30
0.0
 40
0.3
  0
CIRCLE
  5
A4
100
AcDbEntity
100
AcDbCircle
  8
Steckverbinder
 62
256
370
-1
  6
ByLayer
 10
2.5400000000000205
 20
12.6999999999999886
 30
0.0
 40
0.3
  0
CIRCLE
  5
A5
100
AcDbEntity
100
AcDbCircle
  8
Steckverbinder
 62
256
370
-1
  6
ByLayer
 10
0.0
 20
12.6999999999999886
 30
0.0
 40
0.3
  0
CIRCLE
  5
A6
100
AcDbEntity
100
AcDbCircle
  8
Steckverbinder
 62
256
370
-1
  6
ByLayer
 10
2.5400000000000205
 20
10.1599999999999966
 30
0.0
 40
0.3
  0
CIRCLE
  5
A7
100
AcDbEntity
100
AcDbCircle
  8
Steckverbinder
 62
256
370
-1
  6
ByLayer
 10
0.0
 20
10.1599999999999966
 30
0.0
 40
0.3
  0
CIRCLE
  5
A8
100
AcDbEntity
100
AcDbCircle
  8
Steckverbinder
 62
256
370
-1
  6
ByLayer
 10
2.5400000000000205
 20
7.6200000000000045
 30
0.0
 40
0.3
  0
CIRCLE
  5
A9
100
AcDbEntity
100
AcDbCircle
  8
Steckverbinder
 62
256
370
-1
  6
ByLayer
 10
0.0
 20
7.6200000000000045
 30
0.0
 40
0.3
  0
CIRCLE
  5
AA
100
AcDbEntity
100
AcDbCircle
  8
Steckverbinder
 62
256
370
-1
  6
ByLayer
 10
2.5400000000000205
 20
5.0799999999999841
 30
0.0
 40
0.3
  0
CIRCLE
  5
AB
100
AcDbEntity
100
AcDbCircle
  8
Steckverbinder
 62
256
370
-1
  6
ByLayer
 10
0.0
 20
5.0799999999999841
 30
0.0
 40
0.3
  0
CIRCLE
  5
AC
100
AcDbEntity
100
AcDbCircle
  8
Steckverbinder
 62
256
370
-1
  6
ByLayer
 10
2.5400000000000205
 20
2.539999999999992
 30
0.0
 40
0.3
  0
CIRCLE
  5
AD
100
AcDbEntity
100
AcDbCircle
  8
Steckverbinder
 62
256
370
-1
  6
ByLayer
 10
0.0
 20
2.539999999999992
 30
0.0
 40
0.3
  0
CIRCLE
  5
AE
100
AcDbEntity
100
AcDbCircle
  8
Steckverbinder
 62
256
370
-1
  6
ByLayer
 10
2.5400000000000205
 20
0.0
 30
0.0
 40
0.3
  0
CIRCLE
  5
AF
100
AcDbEntity
100
AcDbCircle
  8
Steckverbinder
 62
256
370
-1
  6
ByLayer
 10
0.0
 20
0.0
 30
0.0
 40
0.3
  0
LINE
  5
B0
100
AcDbEntity
100
AcDbLine
  8
Steckverbinder
 62
256
370
-1
  6
ByLayer
 10
-3.1299999999999955
 20
-5.1200000000000045
 30
0.0
 11
5.6700000000000159
 21
-5.1200000000000045
 31
0.0
  0
LINE
  5
B1
100
AcDbEntity
100
AcDbLine
  8
Steckverbinder
 62
256
370
-1
  6
ByLayer
 10
5.6700000000000159
 20
-5.1200000000000045
 30
0.0
 11
5.6700000000000159
 21
53.3799999999999955
 31
0.0
  0
LINE
  5
B2
100
AcDbEntity
100
AcDbLine
  8
Steckverbinder
 62
256
370
-1
  6
ByLayer
 10
5.6700000000000159
 20
53.3799999999999955
 30
0.0
 11
-3.1299999999999955
 21
53.3799999999999955
 31
0.0
  0
LINE
  5
B3
100
AcDbEntity
100
AcDbLine
  8
Steckverbinder
 62
256
370
-1
  6
ByLayer
 10
4.5700000000000216
 20
52.2799999999999727
 30
0.0
 11
-2.0300000000000011
 21
52.2799999999999727
 31
0.0
  0
LINE
  5
B4
100
AcDbEntity
100
AcDbLine
  8
Steckverbinder
 62
256
370
-1
  6
ByLayer
 10
4.5700000000000216
 20
-4.0200000000000102
 30
0.0
 11
4.5700000000000216
 21
52.2799999999999727
 31
0.0
  0
LINE
  5
B5
100
AcDbEntity
100
AcDbLine
  8
Steckverbinder
 62
256
370
-1
  6
ByLayer
 10
-2.0300000000000011
 20
-4.0200000000000102
 30
0.0
 11
4.5700000000000216
 21
-4.0200000000000102
 31
0.0
  0
LINE
  5
B6
100
AcDbEntity
100
AcDbLine
  8
Steckverbinder
 62
256
370
-1
  6
ByLayer
 10
-3.1299999999999955
 20
53.3799999999999955
 30
0.0
 11
-3.1299999999999955
 21
26.3799999999999955
 31
0.0
  0
LINE
  5
B7
100
AcDbEntity
100
AcDbLine
  8
Steckverbinder
 62
256
370
-1
  6
ByLayer
 10
-3.1299999999999955
 20
21.8799999999999955
 30
0.0
 11
-3.1299999999999955
 21
-5.1200000000000045
 31
0.0
  0
LINE
  5
B8
100
AcDbEntity
100
AcDbLine
  8
Steckverbinder
 62
256
370
-1
  6
ByLayer
 10
-2.0300000000000011
 20
21.8799999999999955
 30
0.0
 11
-2.0300000000000011
 21
-4.0200000000000102
 31
0.0
  0
LINE
  5
B9
100
AcDbEntity
100
AcDbLine
  8
Steckverbinder
 62
256
370
-1
  6
ByLayer
 10
-3.1299999999999955
 20
21.8799999999999955
 30
0.0
 11
-2.0300000000000011
 21
21.8799999999999955
 31
0.0
  0
LINE
  5
BA
100
AcDbEntity
100
AcDbLine
  8
Steckverbinder
 62
256
370
-1
  6
ByLayer
 10
-2.0300000000000011
 20
52.2799999999999727
 30
0.0
 11
-2.0300000000000011
 21
26.3799999999999955
 31
0.0
  0
LINE
  5
BB
100
AcDbEntity
100
AcDbLine
  8
Steckverbinder
 62
256
370
-1
  6
ByLayer
 10
-3.1299999999999955
 20
26.3799999999999955
 30
0.0
 11
-2.0300000000000011
 21
26.3799999999999955
 31
0.0
  0
ENDBLK
  5
BC
100
AcDbEntity
  8
0
100
AcDbBlockEnd
  0
BLOCK
  5
BD
100
AcDbEntity
  8
0
100
AcDbBlockBegin
  2
wannenstecker2x20-s
 70
0
 10
0.0
 20
0.0
 30
0.0
  3
wannenstecker2x20-s
  1

  0
LINE
  5
BE
100
AcDbEntity
100
AcDbLine
  8
Steckverbinder
 62
256
370
-1
  6
ByLayer
 10
-0.3000000000000114
 20
-8.3000000000000682
 30
0.0
 11
0.2999999999999829
 21
-8.3000000000000682
 31
0.0
  0
LINE
  5
BF
100
AcDbEntity
100
AcDbLine
  8
Steckverbinder
 62
256
370
-1
  6
ByLayer
 10
0.2999999999999829
 20
-8.3000000000000682
 30
0.0
 11
0.2999999999999829
 21
3.1999999999999318
 31
0.0
  0
LINE
  5
C0
100
AcDbEntity
100
AcDbLine
  8
Steckverbinder
 62
256
370
-1
  6
ByLayer
 10
0.2999999999999829
 20
3.1999999999999318
 30
0.0
 11
-0.3000000000000114
 21
3.1999999999999318
 31
0.0
  0
LINE
  5
C1
100
AcDbEntity
100
AcDbLine
  8
Steckverbinder
 62
256
370
-1
  6
ByLayer
 10
-0.3000000000000114
 20
3.1999999999999318
 30
0.0
 11
-0.3000000000000114
 21
-8.3000000000000682
 31
0.0
  0
LINE
  5
C2
100
AcDbEntity
100
AcDbLine
  8
Steckverbinder
 62
256
370
-1
  6
ByLayer
 10
2.1999999999999886
 20
-8.3000000000000682
 30
0.0
 11
2.7999999999999829
 21
-8.3000000000000682
 31
0.0
  0
LINE
  5
C3
100
AcDbEntity
100
AcDbLine
  8
Steckverbinder
 62
256
370
-1
  6
ByLayer
 10
2.7999999999999829
 20
-8.3000000000000682
 30
0.0
 11
2.7999999999999829
 21
3.1999999999999318
 31
0.0
  0
LINE
  5
C4
100
AcDbEntity
100
AcDbLine
  8
Steckverbinder
 62
256
370
-1
  6
ByLayer
 10
2.7999999999999829
 20
3.1999999999999318
 30
0.0
 11
2.1999999999999886
 21
3.1999999999999318
 31
0.0
  0
LINE
  5
C5
100
AcDbEntity
100
AcDbLine
  8
Steckverbinder
 62
256
370
-1
  6
ByLayer
 10
2.1999999999999886
 20
3.1999999999999318
 30
0.0
 11
2.1999999999999886
 21
-8.3000000000000682
 31
0.0
  0
LINE
  5
C6
100
AcDbEntity
100
AcDbLine
  8
Steckverbinder
 62
256
370
-1
  6
ByLayer
 10
-1.25
 20
0.0
 30
0.0
 11
3.75
 21
0.0
 31
0.0
  0
LINE
  5
C7
100
AcDbEntity
100
AcDbLine
  8
Steckverbinder
 62
256
370
-1
  6
ByLayer
 10
2.1999999999999886
 20
0.0
 30
0.0
 11
2.7999999999999829
 21
0.0
 31
0.0
  0
LINE
  5
C8
100
AcDbEntity
100
AcDbLine
  8
Steckverbinder
 62
256
370
-1
  6
ByLayer
 10
-0.3000000000000114
 20
0.0
 30
0.0
 11
0.2999999999999829
 21
0.0
 31
0.0
  0
LINE
  5
C9
100
AcDbEntity
100
AcDbLine
  8
Steckverbinder
 62
256
370
-1
  6
ByLayer
 10
-3.1500000000000057
 20
0.0
 30
0.0
 11
5.6500000000000057
 21
0.0
 31
0.0
  0
LINE
  5
CA
100
AcDbEntity
100
AcDbLine
  8
Steckverbinder
 62
256
370
-1
  6
ByLayer
 10
5.6500000000000057
 20
0.0
 30
0.0
 11
5.6500000000000057
 21
-8.8000000000000114
 31
0.0
  0
LINE
  5
CB
100
AcDbEntity
100
AcDbLine
  8
Steckverbinder
 62
256
370
-1
  6
ByLayer
 10
-3.1500000000000057
 20
-8.8000000000000114
 30
0.0
 11
-3.1500000000000057
 21
0.0
 31
0.0
  0
LINE
  5
CC
100
AcDbEntity
100
AcDbLine
  8
Steckverbinder
 62
256
370
-1
  6
ByLayer
 10
-2.0500000000000114
 20
-2.5
 30
0.0
 11
4.5500000000000114
 21
-2.5
 31
0.0
  0
LINE
  5
CD
100
AcDbEntity
100
AcDbLine
  8
Steckverbinder
 62
256
370
-1
  6
ByLayer
 10
-2.0500000000000114
 20
-8.8000000000000114
 30
0.0
 11
-2.0500000000000114
 21
-2.5
 31
0.0
  0
LINE
  5
CE
100
AcDbEntity
100
AcDbLine
  8
Steckverbinder
 62
256
370
-1
  6
ByLayer
 10
-2.0500000000000114
 20
-8.8000000000000114
 30
0.0
 11
-3.1500000000000057
 21
-8.8000000000000114
 31
0.0
  0
LINE
  5
CF
100
AcDbEntity
100
AcDbLine
  8
Steckverbinder
 62
256
370
-1
  6
ByLayer
 10
5.6500000000000057
 20
-8.8000000000000114
 30
0.0
 11
4.5500000000000114
 21
-8.8000000000000114
 31
0.0
  0
LINE
  5
D0
100
AcDbEntity
100
AcDbLine
  8
Steckverbinder
 62
256
370
-1
  6
ByLayer
 10
4.5500000000000114
 20
-2.5
 30
0.0
 11
4.5500000000000114
 21
-8.8000000000000114
 31
0.0
  0
LINE
  5
D1
100
AcDbEntity
100
AcDbLine
  8
Steckverbinder
 62
256
370
-1
  6
ByLayer
 10
-2.0500000000000114
 20
-8.8000000000000114
 30
0.0
 11
4.5500000000000114
 21
-8.8000000000000114
 31
0.0
  0
ENDBLK
  5
D2
100
AcDbEntity
  8
0
100
AcDbBlockEnd
  0
BLOCK
  5
D3
100
AcDbEntity
  8
0
100
AcDbBlockBegin
  2
viewing_direction
 70
0
 10
0.0
 20
0.0
 30
0.0
  3
viewing_direction
  1

  0
LINE
  5
D4
100
AcDbEntity
100
AcDbLine
  8
viewing_direction
 62
256
370
-1
  6
ByLayer
 10
10.0
 20
0.0
 30
0.0
 11
0.0
 21
10.0
 31
0.0
  0
LINE
  5
D5
100
AcDbEntity
100
AcDbLine
  8
viewing_direction
 62
256
370
-1
  6
ByLayer
 10
0.0
 20
10.0
 30
0.0
 11
0.0
 21
5.0
 31
0.0
  0
LINE
  5
D6
100
AcDbEntity
100
AcDbLine
  8
viewing_direction
 62
256
370
-1
  6
ByLayer
 10
0.0
 20
5.0
 30
0.0
 11
-10.0
 21
5.0
 31
0.0
  0
LINE
  5
D7
100
AcDbEntity
100
AcDbLine
  8
viewing_direction
 62
256
370
-1
  6
ByLayer
 10
-10.0
 20
5.0
 30
0.0
 11
-10.0
 21
-5.0
 31
0.0
  0
LINE
  5
D8
100
AcDbEntity
100
AcDbLine
  8
viewing_direction
 62
256
370
-1
  6
ByLayer
 10
-10.0
 20
-5.0
 30
0.0
 11
0.0
 21
-5.0
 31
0.0
  0
LINE
  5
D9
100
AcDbEntity
100
AcDbLine
  8
viewing_direction
 62
256
370
-1
  6
ByLayer
 10
0.0
 20
-5.0
 30
0.0
 11
0.0
 21
-10.0
 31
0.0
  0
LINE
  5
DA
100
AcDbEntity
100
AcDbLine
  8
viewing_direction
 62
256
370
-1
  6
ByLayer
 10
0.0
 20
-10.0
 30
0.0
 11
10.0
 21
0.0
 31
0.0
  0
ENDBLK
  5
DB
100
AcDbEntity
  8
0
100
AcDbBlockEnd
  0
ENDSEC
  0
SECTION
  2
ENTITIES
  0
LINE
  5
DC
100
AcDbEntity
100
AcDbLine
  8
Platine
 62
256
370
-1
  6
ByLayer
 10
0.0
 20
0.0
 30
0.0
 11
75.0
 21
0.0
 31
0.0
  0
LINE
  5
DD
100
AcDbEntity
100
AcDbLine
  8
Platine
 62
256
370
-1
  6
ByLayer
 10
75.0
 20
0.0
 30
0.0
 11
75.0
 21
53.0
 31
0.0
  0
LINE
  5
DE
100
AcDbEntity
100
AcDbLine
  8
Platine
 62
256
370
-1
  6
ByLayer
 10
0.0
 20
53.0
 30
0.0
 11
0.0
 21
0.0
 31
0.0
  0
CIRCLE
  5
DF
100
AcDbEntity
100
AcDbCircle
  8
Platine
 62
256
370
-1
  6
ByLayer
 10
2.5
 20
50.5
 30
0.0
 40
1.2
  0
CIRCLE
  5
E0
100
AcDbEntity
100
AcDbCircle
  8
Platine
 62
256
370
-1
  6
ByLayer
 10
66.7000000000000028
 20
50.5
 30
0.0
 40
1.2
  0
CIRCLE
  5
E1
100
AcDbEntity
100
AcDbCircle
  8
Platine
 62
256
370
-1
  6
ByLayer
 10
2.5
 20
2.5
 30
0.0
 40
1.2
  0
CIRCLE
  5
E2
100
AcDbEntity
100
AcDbCircle
  8
Platine
 62
256
370
-1
  6
ByLayer
 10
66.7000000000000028
 20
2.5
 30
0.0
 40
1.2
  0
CIRCLE
  5
E3
100
AcDbEntity
100
AcDbCircle
  8
Platine
 62
256
370
-1
  6
ByLayer
 10
3.0
 20
162.0
 30
0.0
 40
1.55
  0
CIRCLE
  5
E4
100
AcDbEntity
100
AcDbCircle
  8
Platine
 62
256
370
-1
  6
ByLayer
 10
3.0
 20
103.0
 30
0.0
 40
1.55
  0
CIRCLE
  5
E5
100
AcDbEntity
100
AcDbCircle
  8
Platine
 62
256
370
-1
  6
ByLayer
 10
88.4000000000000057
 20
162.0
 30
0.0
 40
1.55
  0
CIRCLE
  5
E6
100
AcDbEntity
100
AcDbCircle
  8
Platine
 62
256
370
-1
  6
ByLayer
 10
88.3999999999999915
 20
103.0
 30
0.0
 40
1.55
  0
LINE
  5
E7
100
AcDbEntity
100
AcDbLine
  8
Display
 62
256
370
-1
  6
ByLayer
 10
4.5
 20
5.1400000000000006
 30
0.0
 11
64.7599999999999909
 21
5.1400000000000006
 31
0.0
  0
LINE
  5
E8
100
AcDbEntity
100
AcDbLine
  8
Display
 62
256
370
-1
  6
ByLayer
 10
64.7599999999999909
 20
5.1400000000000006
 30
0.0
 11
64.7599999999999909
 21
47.8599999999999994
 31
0.0
  0
LINE
  5
E9
100
AcDbEntity
100
AcDbLine
  8
Display
 62
256
370
-1
  6
ByLayer
 10
64.7599999999999909
 20
47.8599999999999994
 30
0.0
 11
4.5
 21
47.8599999999999994
 31
0.0
  0
LINE
  5
EA
100
AcDbEntity
100
AcDbLine
  8
Display
 62
256
370
-1
  6
ByLayer
 10
4.5
 20
47.8599999999999994
 30
0.0
 11
4.5
 21
5.1400000000000006
 31
0.0
  0
LINE
  5
EB
100
AcDbEntity
100
AcDbLine
  8
active_area
 62
256
370
-1
  6
ByLayer
 10
7.4000000000000057
 20
44.8599999999999994
 30
0.0
 11
7.4000000000000057
 21
8.1400000000000006
 31
0.0
  0
LINE
  5
EC
100
AcDbEntity
100
AcDbLine
  8
active_area
 62
256
370
-1
  6
ByLayer
 10
56.3600000000000136
 20
8.1400000000000006
 30
0.0
 11
7.4000000000000057
 21
8.1400000000000006
 31
0.0
  0
LINE
  5
ED
100
AcDbEntity
100
AcDbLine
  8
active_area
 62
256
370
-1
  6
ByLayer
 10
56.3600000000000136
 20
44.8599999999999994
 30
0.0
 11
7.4000000000000057
 21
44.8599999999999994
 31
0.0
  0
LINE
  5
EE
100
AcDbEntity
100
AcDbLine
  8
active_area
 62
256
370
-1
  6
ByLayer
 10
56.3600000000000136
 20
44.8599999999999994
 30
0.0
 11
56.3600000000000136
 21
8.1400000000000006
 31
0.0
  0
LINE
  5
EF
100
AcDbEntity
100
AcDbLine
  8
active_area
 62
256
370
-1
  6
ByLayer
 10
10.4000000000000057
 20
156.8000000000000114
 30
0.0
 11
10.4000000000000057
 21
108.2000000000000171
 31
0.0
  0
LINE
  5
F0
100
AcDbEntity
100
AcDbLine
  8
active_area
 62
256
370
-1
  6
ByLayer
 10
10.4000000000000057
 20
108.2000000000000171
 30
0.0
 11
75.1999999999999886
 21
108.2000000000000171
 31
0.0
  0
LINE
  5
F1
100
AcDbEntity
100
AcDbLine
  8
active_area
 62
256
370
-1
  6
ByLayer
 10
10.4000000000000057
 20
156.8000000000000114
 30
0.0
 11
75.1999999999999886
 21
156.8000000000000114
 31
0.0
  0
LINE
  5
F2
100
AcDbEntity
100
AcDbLine
  8
active_area
 62
256
370
-1
  6
ByLayer
 10
75.1999999999999886
 20
156.8000000000000114
 30
0.0
 11
75.1999999999999886
 21
108.2000000000000171
 31
0.0
  0
LINE
  5
F3
100
AcDbEntity
100
AcDbLine
  8
Display
 62
256
370
-1
  6
ByLayer
 10
6.0
 20
103.7300000000000182
 30
0.0
 11
85.1999999999999886
 21
103.7300000000000182
 31
0.0
  0
LINE
  5
F4
100
AcDbEntity
100
AcDbLine
  8
Display
 62
256
370
-1
  6
ByLayer
 10
6.0
 20
161.2700000000000102
 30
0.0
 11
6.0
 21
103.7300000000000182
 31
0.0
  0
LINE
  5
F5
100
AcDbEntity
100
AcDbLine
  8
Display
 62
256
370
-1
  6
ByLayer
 10
85.1999999999999886
 20
103.7300000000000182
 30
0.0
 11
85.1999999999999886
 21
161.2700000000000102
 31
0.0
  0
LINE
  5
F6
100
AcDbEntity
100
AcDbLine
  8
Display
 62
256
370
-1
  6
ByLayer
 10
6.0
 20
161.2700000000000102
 30
0.0
 11
85.1999999999999886
 21
161.2700000000000102
 31
0.0
  0
ARC
  5
F7
100
AcDbEntity
  8
Platine
 62
256
370
-1
  6
ByLayer
100
AcDbCircle
 10
91.5
 20
162.0
 30
0.0
 40
3.0
100
AcDbArc
 50
0.0
 51
90.0
  0
LINE
  5
F8
100
AcDbEntity
100
AcDbLine
  8
Platine
 62
256
370
-1
  6
ByLayer
 10
91.5
 20
165.0
 30
0.0
 11
3.0
 21
165.0
 31
0.0
  0
ARC
  5
F9
100
AcDbEntity
  8
Platine
 62
256
370
-1
  6
ByLayer
100
AcDbCircle
 10
3.0
 20
162.0
 30
0.0
 40
3.0
100
AcDbArc
 50
90.0
 51
180.0
  0
LINE
  5
FA
100
AcDbEntity
100
AcDbLine
  8
Platine
 62
256
370
-1
  6
ByLayer
 10
0.0
 20
162.0
 30
0.0
 11
0.0
 21
103.0
 31
0.0
  0
ARC
  5
FB
100
AcDbEntity
  8
Platine
 62
256
370
-1
  6
ByLayer
100
AcDbCircle
 10
3.0
 20
103.0
 30
0.0
 40
3.0
100
AcDbArc
 50
180.0
 51
270.0
  0
LINE
  5
FC
100
AcDbEntity
100
AcDbLine
  8
Platine
 62
256
370
-1
  6
ByLayer
 10
3.0
 20
100.0
 30
0.0
 11
91.5
 21
100.0
 31
0.0
  0
LINE
  5
FD
100
AcDbEntity
100
AcDbLine
  8
Platine
 62
256
370
-1
  6
ByLayer
 10
94.5
 20
103.0
 30
0.0
 11
94.5
 21
162.0
 31
0.0
  0
ARC
  5
FE
100
AcDbEntity
  8
Platine
 62
256
370
-1
  6
ByLayer
100
AcDbCircle
 10
91.5
 20
103.0
 30
0.0
 40
3.0
100
AcDbArc
 50
270.0
 51
0.0
  0
MTEXT
  5
FF
100
AcDbEntity
100
AcDbMText
  8
0
 62
256
370
-1
  6
ByLayer
 10
-20.0
 20
140.0
 30
0.0
 40
10.0
 41
100.0
 71
5
 72
2
  1
3.2"
  7
normallatin1
 50
90.0
 73
1
 44
1.0
  0
MTEXT
  5
100
100
AcDbEntity
100
AcDbMText
  8
0
 62
256
370
-1
  6
ByLayer
 10
-20.0
 20
30.0
 30
0.0
 40
10.0
 41
100.0
 71
5
 72
2
  1
2.4"
  7
normallatin1
 50
90.0
 73
1
 44
1.0
  0
MTEXT
  5
101
100
AcDbEntity
100
AcDbMText
  8
0
 62
256
370
-1
  6
ByLayer
 10
140.0
 20
0.0
 30
0.0
 40
10.0
 41
100.0
 71
7
 72
2
  1
TFT-Displays\PToleranz\~ca.\~+-0,3mm\Pvertrieb@advamation.de,\~2013-07-17
  7
normal
 50
0.0
 73
1
 44
1.0
  0
LINE
  5
102
100
AcDbEntity
100
AcDbLine
  8
Platine
 62
256
370
-1
  6
ByLayer
 10
75.0
 20
53.0
 30
0.0
 11
0.0
 21
53.0
 31
0.0
  0
INSERT
  5
103
100
AcDbEntity
100
AcDbBlockReference
  8
Steckverbinder
 62
256
370
-1
  6
ByLayer
  2
header2x20-t
 10
70.2299999999999898
 20
2.3699999999999974
 30
0.0
  0
INSERT
  5
104
100
AcDbEntity
100
AcDbBlockReference
  8
Steckverbinder
 62
256
370
-1
  6
ByLayer
  2
header2x20-t
 10
89.7599999999999909
 20
108.3700000000000045
 30
0.0
 44
1.0
 45
1.0
  0
CIRCLE
  5
105
100
AcDbEntity
100
AcDbCircle
  8
Platine
 62
256
370
-1
  6
ByLayer
 10
3.0
 20
281.0
 30
0.0
 40
1.6000000000000001
  0
CIRCLE
  5
106
100
AcDbEntity
100
AcDbCircle
  8
Platine
 62
256
370
-1
  6
ByLayer
 10
117.0
 20
281.0
 30
0.0
 40
1.6000000000000001
  0
CIRCLE
  5
107
100
AcDbEntity
100
AcDbCircle
  8
Platine
 62
256
370
-1
  6
ByLayer
 10
3.0
 20
213.0
 30
0.0
 40
1.6000000000000001
  0
CIRCLE
  5
108
100
AcDbEntity
100
AcDbCircle
  8
Platine
 62
256
370
-1
  6
ByLayer
 10
117.0
 20
213.0
 30
0.0
 40
1.6000000000000001
  0
LINE
  5
109
100
AcDbEntity
100
AcDbLine
  8
active_area
 62
256
370
-1
  6
ByLayer
 10
107.5199999999999818
 20
276.1000000000000227
 30
0.0
 11
12.4799999999999613
 21
276.1000000000000227
 31
0.0
  0
LINE
  5
10A
100
AcDbEntity
100
AcDbLine
  8
active_area
 62
256
370
-1
  6
ByLayer
 10
107.5199999999999818
 20
222.2400000000000091
 30
0.0
 11
107.5199999999999818
 21
276.1000000000000227
 31
0.0
  0
LINE
  5
10B
100
AcDbEntity
100
AcDbLine
  8
active_area
 62
256
370
-1
  6
ByLayer
 10
12.4799999999999613
 20
222.2400000000000091
 30
0.0
 11
12.4799999999999613
 21
276.1000000000000227
 31
0.0
  0
LINE
  5
10C
100
AcDbEntity
100
AcDbLine
  8
active_area
 62
256
370
-1
  6
ByLayer
 10
107.5199999999999818
 20
222.2400000000000091
 30
0.0
 11
12.4799999999999613
 21
222.2400000000000091
 31
0.0
  0
LINE
  5
10D
100
AcDbEntity
100
AcDbLine
  8
Display
 62
256
370
-1
  6
ByLayer
 10
7.25
 20
213.4000000000000341
 30
0.0
 11
112.75
 21
213.4000000000000341
 31
0.0
  0
LINE
  5
10E
100
AcDbEntity
100
AcDbLine
  8
Display
 62
256
370
-1
  6
ByLayer
 10
112.75
 20
213.4000000000000341
 30
0.0
 11
112.75
 21
280.6000000000000227
 31
0.0
  0
LINE
  5
10F
100
AcDbEntity
100
AcDbLine
  8
Display
 62
256
370
-1
  6
ByLayer
 10
112.75
 20
280.6000000000000227
 30
0.0
 11
7.25
 21
280.6000000000000227
 31
0.0
  0
LINE
  5
110
100
AcDbEntity
100
AcDbLine
  8
Display
 62
256
370
-1
  6
ByLayer
 10
7.25
 20
280.6000000000000227
 30
0.0
 11
7.25
 21
213.4000000000000341
 31
0.0
  0
ARC
  5
111
100
AcDbEntity
  8
Platine
 62
256
370
-1
  6
ByLayer
100
AcDbCircle
 10
3.0
 20
281.0
 30
0.0
 40
3.0
100
AcDbArc
 50
90.0
 51
180.0
  0
LINE
  5
112
100
AcDbEntity
100
AcDbLine
  8
Platine
 62
256
370
-1
  6
ByLayer
 10
0.0
 20
281.0
 30
0.0
 11
0.0
 21
213.0
 31
0.0
  0
ARC
  5
113
100
AcDbEntity
  8
Platine
 62
256
370
-1
  6
ByLayer
100
AcDbCircle
 10
3.0
 20
213.0
 30
0.0
 40
3.0
100
AcDbArc
 50
180.0
 51
270.0
  0
LINE
  5
114
100
AcDbEntity
100
AcDbLine
  8
Platine
 62
256
370
-1
  6
ByLayer
 10
3.0
 20
210.0
 30
0.0
 11
117.0
 21
210.0
 31
0.0
  0
ARC
  5
115
100
AcDbEntity
  8
Platine
 62
256
370
-1
  6
ByLayer
100
AcDbCircle
 10
117.0
 20
213.0
 30
0.0
 40
3.0
100
AcDbArc
 50
270.0
 51
0.0
  0
LINE
  5
116
100
AcDbEntity
100
AcDbLine
  8
Platine
 62
256
370
-1
  6
ByLayer
 10
120.0
 20
213.0
 30
0.0
 11
120.0
 21
281.0
 31
0.0
  0
LINE
  5
117
100
AcDbEntity
100
AcDbLine
  8
Platine
 62
256
370
-1
  6
ByLayer
 10
117.0
 20
284.0
 30
0.0
 11
3.0
 21
284.0
 31
0.0
  0
ARC
  5
118
100
AcDbEntity
  8
Platine
 62
256
370
-1
  6
ByLayer
100
AcDbCircle
 10
117.0
 20
281.0
 30
0.0
 40
3.0
100
AcDbArc
 50
0.0
 51
90.0
  0
MTEXT
  5
119
100
AcDbEntity
100
AcDbMText
  8
0
 62
256
370
-1
  6
ByLayer
 10
-20.0
 20
260.0
 30
0.0
 40
10.0
 41
100.0
 71
5
 72
2
  1
4.3"
  7
normallatin1
 50
90.0
 73
1
 44
1.0
  0
INSERT
  5
11A
100
AcDbEntity
100
AcDbBlockReference
  8
Steckverbinder
 62
256
370
-1
  6
ByLayer
  2
wannenstecker2x20-t
 10
114.7099999999999937
 20
222.8700000000000045
 30
0.0
 44
1.0
 45
1.0
  0
CIRCLE
  5
11B
100
AcDbEntity
100
AcDbCircle
  8
Platine
 62
256
370
-1
  6
ByLayer
 10
3.0
 20
411.3500000000000227
 30
0.0
 40
1.6000000000000001
  0
CIRCLE
  5
11C
100
AcDbEntity
100
AcDbCircle
  8
Platine
 62
256
370
-1
  6
ByLayer
 10
3.0
 20
333.0
 30
0.0
 40
1.6000000000000001
  0
CIRCLE
  5
11D
100
AcDbEntity
100
AcDbCircle
  8
Platine
 62
256
370
-1
  6
ByLayer
 10
130.0
 20
411.3500000000000227
 30
0.0
 40
1.6000000000000001
  0
CIRCLE
  5
11E
100
AcDbEntity
100
AcDbCircle
  8
Platine
 62
256
370
-1
  6
ByLayer
 10
130.0
 20
333.0
 30
0.0
 40
1.6000000000000001
  0
LINE
  5
11F
100
AcDbEntity
100
AcDbLine
  8
active_area
 62
256
370
-1
  6
ByLayer
 10
121.8000000000000114
 20
406.9700000000000273
 30
0.0
 11
13.8000000000000114
 21
406.9700000000000273
 31
0.0
  0
LINE
  5
120
100
AcDbEntity
100
AcDbLine
  8
active_area
 62
256
370
-1
  6
ByLayer
 10
121.8000000000000114
 20
406.9700000000000273
 30
0.0
 11
121.8000000000000114
 21
342.1700000000000159
 31
0.0
  0
LINE
  5
121
100
AcDbEntity
100
AcDbLine
  8
active_area
 62
256
370
-1
  6
ByLayer
 10
13.8000000000000114
 20
406.9700000000000273
 30
0.0
 11
13.8000000000000114
 21
342.1700000000000159
 31
0.0
  0
LINE
  5
122
100
AcDbEntity
100
AcDbLine
  8
active_area
 62
256
370
-1
  6
ByLayer
 10
121.8000000000000114
 20
342.1700000000000159
 30
0.0
 11
13.8000000000000114
 21
342.1700000000000159
 31
0.0
  0
LINE
  5
123
100
AcDbEntity
100
AcDbLine
  8
Display
 62
256
370
-1
  6
ByLayer
 10
7.25
 20
333.4000000000000341
 30
0.0
 11
125.75
 21
333.4000000000000341
 31
0.0
  0
LINE
  5
124
100
AcDbEntity
100
AcDbLine
  8
Display
 62
256
370
-1
  6
ByLayer
 10
125.75
 20
333.4000000000000341
 30
0.0
 11
125.75
 21
410.9500000000000455
 31
0.0
  0
LINE
  5
125
100
AcDbEntity
100
AcDbLine
  8
Display
 62
256
370
-1
  6
ByLayer
 10
125.75
 20
410.9500000000000455
 30
0.0
 11
7.25
 21
410.9500000000000455
 31
0.0
  0
LINE
  5
126
100
AcDbEntity
100
AcDbLine
  8
Display
 62
256
370
-1
  6
ByLayer
 10
7.25
 20
410.9500000000000455
 30
0.0
 11
7.25
 21
333.4000000000000341
 31
0.0
  0
ARC
  5
127
100
AcDbEntity
  8
Platine
 62
256
370
-1
  6
ByLayer
100
AcDbCircle
 10
3.0
 20
411.3500000000000227
 30
0.0
 40
3.0
100
AcDbArc
 50
90.0
 51
180.0
  0
LINE
  5
128
100
AcDbEntity
100
AcDbLine
  8
Platine
 62
256
370
-1
  6
ByLayer
 10
130.0
 20
414.3500000000000227
 30
0.0
 11
3.0
 21
414.3500000000000227
 31
0.0
  0
ARC
  5
129
100
AcDbEntity
  8
Platine
 62
256
370
-1
  6
ByLayer
100
AcDbCircle
 10
130.0
 20
411.3500000000000227
 30
0.0
 40
3.0
100
AcDbArc
 50
0.0
 51
90.0
  0
LINE
  5
12A
100
AcDbEntity
100
AcDbLine
  8
Platine
 62
256
370
-1
  6
ByLayer
 10
133.0
 20
333.0
 30
0.0
 11
133.0
 21
411.3500000000000227
 31
0.0
  0
ARC
  5
12B
100
AcDbEntity
  8
Platine
 62
256
370
-1
  6
ByLayer
100
AcDbCircle
 10
130.0
 20
333.0
 30
0.0
 40
3.0
100
AcDbArc
 50
270.0
 51
0.0
  0
LINE
  5
12C
100
AcDbEntity
100
AcDbLine
  8
Platine
 62
256
370
-1
  6
ByLayer
 10
2.9999999999999996
 20
330.0
 30
0.0
 11
130.0
 21
330.0
 31
0.0
  0
LINE
  5
12D
100
AcDbEntity
100
AcDbLine
  8
Platine
 62
256
370
-1
  6
ByLayer
 10
0.0
 20
411.3500000000000227
 30
0.0
 11
0.0
 21
333.0
 31
0.0
  0
ARC
  5
12E
100
AcDbEntity
  8
Platine
 62
256
370
-1
  6
ByLayer
100
AcDbCircle
 10
2.9999999999999996
 20
333.0
 30
0.0
 40
3.0
100
AcDbArc
 50
180.0
 51
270.0
  0
MTEXT
  5
12F
100
AcDbEntity
100
AcDbMText
  8
0
 62
256
370
-1
  6
ByLayer
 10
-20.0
 20
380.0
 30
0.0
 40
10.0
 41
100.0
 71
5
 72
2
  1
5.0"
  7
normallatin1
 50
90.0
 73
1
 44
1.0
  0
INSERT
  5
130
100
AcDbEntity
100
AcDbBlockReference
  8
Steckverbinder
 62
256
370
-1
  6
ByLayer
  2
wannenstecker2x20-t
 10
127.710000000000008
 20
348.0450000000000159
 30
0.0
 44
1.0
 45
1.0
  0
CIRCLE
  5
131
100
AcDbEntity
100
AcDbCircle
  8
Platine
 62
256
370
-1
  6
ByLayer
 10
3.0
 20
565.0
 30
0.0
 40
1.6000000000000001
  0
CIRCLE
  5
132
100
AcDbEntity
100
AcDbCircle
  8
Platine
 62
256
370
-1
  6
ByLayer
 10
3.0
 20
463.0
 30
0.0
 40
1.6000000000000001
  0
CIRCLE
  5
133
100
AcDbEntity
100
AcDbCircle
  8
Platine
 62
256
370
-1
  6
ByLayer
 10
178.0
 20
565.0
 30
0.0
 40
1.6000000000000001
  0
CIRCLE
  5
134
100
AcDbEntity
100
AcDbCircle
  8
Platine
 62
256
370
-1
  6
ByLayer
 10
178.0
 20
463.0
 30
0.0
 40
1.6000000000000001
  0
ARC
  5
135
100
AcDbEntity
  8
Platine
 62
256
370
-1
  6
ByLayer
100
AcDbCircle
 10
3.0
 20
463.0
 30
0.0
 40
3.0
100
AcDbArc
 50
180.0
 51
270.0
  0
LINE
  5
136
100
AcDbEntity
100
AcDbLine
  8
Platine
 62
256
370
-1
  6
ByLayer
 10
0.0
 20
565.0
 30
0.0
 11
0.0
 21
463.0
 31
0.0
  0
ARC
  5
137
100
AcDbEntity
  8
Platine
 62
256
370
-1
  6
ByLayer
100
AcDbCircle
 10
3.0
 20
565.0
 30
0.0
 40
3.0
100
AcDbArc
 50
90.0
 51
180.0
  0
LINE
  5
138
100
AcDbEntity
100
AcDbLine
  8
Platine
 62
256
370
-1
  6
ByLayer
 10
178.0
 20
568.0
 30
0.0
 11
3.0
 21
568.0
 31
0.0
  0
ARC
  5
139
100
AcDbEntity
  8
Platine
 62
256
370
-1
  6
ByLayer
100
AcDbCircle
 10
178.0
 20
565.0
 30
0.0
 40
3.0
100
AcDbArc
 50
0.0
 51
90.0
  0
LINE
  5
13A
100
AcDbEntity
100
AcDbLine
  8
Platine
 62
256
370
-1
  6
ByLayer
 10
181.0
 20
463.0
 30
0.0
 11
181.0
 21
565.0
 31
0.0
  0
LINE
  5
13B
100
AcDbEntity
100
AcDbLine
  8
Platine
 62
256
370
-1
  6
ByLayer
 10
3.0
 20
460.0
 30
0.0
 11
178.0
 21
460.0
 31
0.0
  0
ARC
  5
13C
100
AcDbEntity
  8
Platine
 62
256
370
-1
  6
ByLayer
100
AcDbCircle
 10
178.0
 20
463.0
 30
0.0
 40
3.0
100
AcDbArc
 50
270.0
 51
0.0
  0
LINE
  5
13D
100
AcDbEntity
100
AcDbLine
  8
Display
 62
256
370
-1
  6
ByLayer
 10
8.0500000000000398
 20
564.0
 30
0.0
 11
8.0500000000000025
 21
464.0
 31
0.0
  0
LINE
  5
13E
100
AcDbEntity
100
AcDbLine
  8
Display
 62
256
370
-1
  6
ByLayer
 10
8.0500000000000025
 20
464.0
 30
0.0
 11
172.9500000000000171
 21
464.0
 31
0.0
  0
LINE
  5
13F
100
AcDbEntity
100
AcDbLine
  8
Display
 62
256
370
-1
  6
ByLayer
 10
172.9500000000000171
 20
564.0
 30
0.0
 11
8.0500000000000398
 21
564.0
 31
0.0
  0
LINE
  5
140
100
AcDbEntity
100
AcDbLine
  8
Display
 62
256
370
-1
  6
ByLayer
 10
172.9500000000000171
 20
564.0
 30
0.0
 11
172.9500000000000171
 21
464.0
 31
0.0
  0
MTEXT
  5
141
100
AcDbEntity
100
AcDbMText
  8
0
 62
256
370
-1
  6
ByLayer
 10
-20.0
 20
520.0
 30
0.0
 40
10.0
 41
100.0
 71
5
 72
2
  1
7.0"
  7
normallatin1
 50
90.0
 73
1
 44
1.0
  0
INSERT
  5
142
100
AcDbEntity
100
AcDbBlockReference
  8
Steckverbinder
 62
256
370
-1
  6
ByLayer
  2
wannenstecker2x20-t
 10
175.7299999999999898
 20
489.8700000000000045
 30
0.0
 44
1.0
 45
1.0
  0
INSERT
  5
143
100
AcDbEntity
100
AcDbBlockReference
  8
viewing_direction
 62
256
370
-1
  6
ByLayer
  2
viewing_direction
 10
31.8800000000000097
 20
26.5
 30
0.0
  0
INSERT
  5
144
100
AcDbEntity
100
AcDbBlockReference
  8
viewing_direction
 62
256
370
-1
  6
ByLayer
  2
viewing_direction
 10
67.8000000000000114
 20
374.57000000000005
 30
0.0
 50
270.0
 44
1.0
 45
1.0
  0
INSERT
  5
145
100
AcDbEntity
100
AcDbBlockReference
  8
viewing_direction
 62
256
370
-1
  6
ByLayer
  2
viewing_direction
 10
59.9999999999999716
 20
249.1700000000000159
 30
0.0
 50
270.0
 44
1.0
 45
1.0
  0
INSERT
  5
146
100
AcDbEntity
100
AcDbBlockReference
  8
viewing_direction
 62
256
370
-1
  6
ByLayer
  2
viewing_direction
 10
42.7999999999999972
 20
132.5
 30
0.0
 50
90.0
 44
1.0
 45
1.0
  0
INSERT
  5
147
100
AcDbEntity
100
AcDbBlockReference
  8
viewing_direction
 62
256
370
-1
  6
ByLayer
  2
viewing_direction
 10
90.5000000000000284
 20
514.0
 30
0.0
 50
-90.0
 44
1.0
 45
1.0
  0
LINE
  5
148
100
AcDbEntity
100
AcDbLine
  8
Platine
 62
256
370
-1
  6
ByLayer
 10
-0.0000000000000001
 20
68.5
 30
0.0
 11
0.0
 21
70.0
 31
0.0
  0
LINE
  5
149
100
AcDbEntity
100
AcDbLine
  8
Platine
 62
256
370
-1
  6
ByLayer
 10
-0.0000000000000001
 20
68.5
 30
0.0
 11
75.0
 21
68.5
 31
0.0
  0
LINE
  5
14A
100
AcDbEntity
100
AcDbLine
  8
Platine
 62
256
370
-1
  6
ByLayer
 10
0.0
 20
70.0
 30
0.0
 11
75.0
 21
70.0
 31
0.0
  0
LINE
  5
14B
100
AcDbEntity
100
AcDbLine
  8
Platine
 62
256
370
-1
  6
ByLayer
 10
75.0
 20
68.5
 30
0.0
 11
75.0
 21
70.0
 31
0.0
  0
LINE
  5
14C
100
AcDbEntity
100
AcDbLine
  8
Display
 62
256
370
-1
  6
ByLayer
 10
4.5000000000000009
 20
73.7000000000000028
 30
0.0
 11
64.7599999999999909
 21
73.7000000000000028
 31
0.0
  0
LINE
  5
14D
100
AcDbEntity
100
AcDbLine
  8
Display
 62
256
370
-1
  6
ByLayer
 10
4.5000000000000009
 20
70.0
 30
0.0
 11
4.5000000000000009
 21
73.7000000000000028
 31
0.0
  0
LINE
  5
14E
100
AcDbEntity
100
AcDbLine
  8
Display
 62
256
370
-1
  6
ByLayer
 10
64.7599999999999909
 20
70.0
 30
0.0
 11
64.7599999999999909
 21
73.7000000000000028
 31
0.0
  0
LINE
  5
14F
100
AcDbEntity
100
AcDbLine
  8
Platine
 62
256
370
-1
  6
DASHEDX2
 10
66.7000000000000028
 20
68.5
 30
0.0
 11
66.7000000000000028
 21
70.0
 31
0.0
  0
LINE
  5
150
100
AcDbEntity
100
AcDbLine
  8
Platine
 62
256
370
-1
  6
DASHEDX2
 10
2.5
 20
68.5
 30
0.0
 11
2.5
 21
70.0
 31
0.0
  0
INSERT
  5
151
100
AcDbEntity
100
AcDbBlockReference
  8
Steckverbinder
 62
256
370
-1
  6
ByLayer
  2
header2x20-s
 10
70.2299999999999898
 20
68.5
 30
0.0
 44
1.0
 45
1.0
  0
LINE
  5
152
100
AcDbEntity
100
AcDbLine
  8
Platine
 62
256
370
-1
  6
ByLayer
 10
88.5
 20
53.0
 30
0.0
 11
90.0
 21
53.0
 31
0.0
  0
LINE
  5
153
100
AcDbEntity
100
AcDbLine
  8
Platine
 62
256
370
-1
  6
ByLayer
 10
90.0
 20
0.0
 30
0.0
 11
90.0
 21
53.0
 31
0.0
  0
LINE
  5
154
100
AcDbEntity
100
AcDbLine
  8
Platine
 62
256
370
-1
  6
ByLayer
 10
88.5
 20
0.0
 30
0.0
 11
88.5
 21
53.0
 31
0.0
  0
LINE
  5
155
100
AcDbEntity
100
AcDbLine
  8
Platine
 62
256
370
-1
  6
ByLayer
 10
88.5
 20
0.0
 30
0.0
 11
90.0
 21
0.0
 31
0.0
  0
LINE
  5
156
100
AcDbEntity
100
AcDbLine
  8
Display
 62
256
370
-1
  6
ByLayer
 10
93.7000000000000028
 20
5.1400000000000006
 30
0.0
 11
93.7000000000000028
 21
47.8599999999999994
 31
0.0
  0
LINE
  5
157
100
AcDbEntity
100
AcDbLine
  8
Display
 62
256
370
-1
  6
ByLayer
 10
90.0
 20
47.8599999999999994
 30
0.0
 11
93.7000000000000028
 21
47.8599999999999994
 31
0.0
  0
LINE
  5
158
100
AcDbEntity
100
AcDbLine
  8
Display
 62
256
370
-1
  6
ByLayer
 10
90.0
 20
5.1400000000000006
 30
0.0
 11
93.7000000000000028
 21
5.1400000000000006
 31
0.0
  0
LINE
  5
159
100
AcDbEntity
100
AcDbLine
  8
Platine
 62
256
370
-1
  6
DASHEDX2
 10
88.5
 20
2.5
 30
0.0
 11
90.0
 21
2.5
 31
0.0
  0
LINE
  5
15A
100
AcDbEntity
100
AcDbLine
  8
Platine
 62
256
370
-1
  6
DASHEDX2
 10
88.5
 20
50.5
 30
0.0
 11
90.0
 21
50.5
 31
0.0
  0
LINE
  5
15B
100
AcDbEntity
100
AcDbLine
  8
Display
 62
256
370
-1
  6
ByLayer
 10
6.0000000000000009
 20
184.5
 30
0.0
 11
85.1999999999999886
 21
184.5
 31
0.0
  0
LINE
  5
15C
100
AcDbEntity
100
AcDbLine
  8
Platine
 62
256
370
-1
  6
ByLayer
 10
-0.0000000000000001
 20
178.5
 30
0.0
 11
0.0
 21
180.0
 31
0.0
  0
LINE
  5
15D
100
AcDbEntity
100
AcDbLine
  8
Platine
 62
256
370
-1
  6
ByLayer
 10
-0.0000000000000001
 20
178.5
 30
0.0
 11
94.5
 21
178.5
 31
0.0
  0
LINE
  5
15E
100
AcDbEntity
100
AcDbLine
  8
Platine
 62
256
370
-1
  6
ByLayer
 10
0.0
 20
180.0
 30
0.0
 11
94.5
 21
180.0
 31
0.0
  0
LINE
  5
15F
100
AcDbEntity
100
AcDbLine
  8
Platine
 62
256
370
-1
  6
ByLayer
 10
94.5
 20
178.5
 30
0.0
 11
94.5
 21
180.0
 31
0.0
  0
LINE
  5
160
100
AcDbEntity
100
AcDbLine
  8
Display
 62
256
370
-1
  6
ByLayer
 10
6.0000000000000009
 20
180.0
 30
0.0
 11
6.0000000000000009
 21
184.5
 31
0.0
  0
LINE
  5
161
100
AcDbEntity
100
AcDbLine
  8
Display
 62
256
370
-1
  6
ByLayer
 10
85.1999999999999886
 20
180.0
 30
0.0
 11
85.1999999999999886
 21
184.5
 31
0.0
  0
LINE
  5
162
100
AcDbEntity
100
AcDbLine
  8
Platine
 62
256
370
-1
  6
DASHEDX2
 10
88.4000000000000057
 20
178.5
 30
0.0
 11
88.4000000000000057
 21
180.0
 31
0.0
  0
LINE
  5
163
100
AcDbEntity
100
AcDbLine
  8
Platine
 62
256
370
-1
  6
DASHEDX2
 10
3.0
 20
178.5
 30
0.0
 11
3.0
 21
180.0
 31
0.0
  0
INSERT
  5
164
100
AcDbEntity
100
AcDbBlockReference
  8
Steckverbinder
 62
256
370
-1
  6
ByLayer
  2
header2x20-s
 10
89.7599999999999909
 20
178.5
 30
0.0
 44
1.0
 45
1.0
  0
LINE
  5
165
100
AcDbEntity
100
AcDbLine
  8
Display
 62
256
370
-1
  6
ByLayer
 10
114.5
 20
103.7300000000000182
 30
0.0
 11
114.5
 21
161.2700000000000102
 31
0.0
  0
LINE
  5
166
100
AcDbEntity
100
AcDbLine
  8
Platine
 62
256
370
-1
  6
ByLayer
 10
110.0
 20
100.0
 30
0.0
 11
110.0
 21
165.0
 31
0.0
  0
LINE
  5
167
100
AcDbEntity
100
AcDbLine
  8
Display
 62
256
370
-1
  6
ByLayer
 10
110.0
 20
161.2700000000000102
 30
0.0
 11
114.5
 21
161.2700000000000102
 31
0.0
  0
LINE
  5
168
100
AcDbEntity
100
AcDbLine
  8
Display
 62
256
370
-1
  6
ByLayer
 10
110.0
 20
103.7300000000000182
 30
0.0
 11
114.5
 21
103.7300000000000182
 31
0.0
  0
LINE
  5
169
100
AcDbEntity
100
AcDbLine
  8
Platine
 62
256
370
-1
  6
ByLayer
 10
108.4500000000000028
 20
100.0
 30
0.0
 11
110.0
 21
100.0
 31
0.0
  0
LINE
  5
16A
100
AcDbEntity
100
AcDbLine
  8
Platine
 62
256
370
-1
  6
ByLayer
 10
108.4500000000000028
 20
165.0
 30
0.0
 11
110.0
 21
165.0
 31
0.0
  0
LINE
  5
16B
100
AcDbEntity
100
AcDbLine
  8
Platine
 62
256
370
-1
  6
ByLayer
 10
108.4500000000000028
 20
100.0
 30
0.0
 11
108.4500000000000028
 21
165.0
 31
0.0
  0
LINE
  5
16C
100
AcDbEntity
100
AcDbLine
  8
Platine
 62
256
370
-1
  6
DASHEDX2
 10
108.4500000000000028
 20
162.0
 30
0.0
 11
110.0
 21
162.0
 31
0.0
  0
LINE
  5
16D
100
AcDbEntity
100
AcDbLine
  8
Platine
 62
256
370
-1
  6
DASHEDX2
 10
108.4500000000000028
 20
103.0
 30
0.0
 11
110.0
 21
103.0
 31
0.0
  0
LINE
  5
16E
100
AcDbEntity
100
AcDbLine
  8
Display
 62
256
370
-1
  6
ByLayer
 10
140.0
 20
280.6000000000000227
 30
0.0
 11
144.5
 21
280.6000000000000227
 31
0.0
  0
LINE
  5
16F
100
AcDbEntity
100
AcDbLine
  8
Display
 62
256
370
-1
  6
ByLayer
 10
140.0
 20
213.4000000000000341
 30
0.0
 11
144.5
 21
213.4000000000000341
 31
0.0
  0
LINE
  5
170
100
AcDbEntity
100
AcDbLine
  8
Display
 62
256
370
-1
  6
ByLayer
 10
144.5
 20
213.4000000000000341
 30
0.0
 11
144.5
 21
280.6000000000000227
 31
0.0
  0
LINE
  5
171
100
AcDbEntity
100
AcDbLine
  8
Platine
 62
256
370
-1
  6
ByLayer
 10
138.4000000000000057
 20
210.0
 30
0.0
 11
140.0
 21
210.0
 31
0.0
  0
LINE
  5
172
100
AcDbEntity
100
AcDbLine
  8
Platine
 62
256
370
-1
  6
ByLayer
 10
140.0
 20
210.0
 30
0.0
 11
140.0
 21
284.0
 31
0.0
  0
LINE
  5
173
100
AcDbEntity
100
AcDbLine
  8
Platine
 62
256
370
-1
  6
ByLayer
 10
138.4000000000000057
 20
284.0
 30
0.0
 11
140.0
 21
284.0
 31
0.0
  0
LINE
  5
174
100
AcDbEntity
100
AcDbLine
  8
Platine
 62
256
370
-1
  6
ByLayer
 10
138.4000000000000057
 20
210.0
 30
0.0
 11
138.4000000000000057
 21
284.0
 31
0.0
  0
LINE
  5
175
100
AcDbEntity
100
AcDbLine
  8
Platine
 62
256
370
-1
  6
DASHEDX2
 10
138.4000000000000057
 20
213.0
 30
0.0
 11
140.0
 21
213.0
 31
0.0
  0
LINE
  5
176
100
AcDbEntity
100
AcDbLine
  8
Platine
 62
256
370
-1
  6
DASHEDX2
 10
138.4000000000000057
 20
281.0
 30
0.0
 11
140.0
 21
281.0
 31
0.0
  0
LINE
  5
177
100
AcDbEntity
100
AcDbLine
  8
Platine
 62
256
370
-1
  6
ByLayer
 10
0.0000000000000006
 20
298.3999999999999773
 30
0.0
 11
0.0
 21
300.0
 31
0.0
  0
LINE
  5
178
100
AcDbEntity
100
AcDbLine
  8
Display
 62
256
370
-1
  6
ByLayer
 10
7.2500000000000009
 20
300.0
 30
0.0
 11
7.25
 21
304.4999999999998863
 31
0.0
  0
LINE
  5
179
100
AcDbEntity
100
AcDbLine
  8
Display
 62
256
370
-1
  6
ByLayer
 10
112.75
 20
300.0
 30
0.0
 11
112.75
 21
304.5
 31
0.0
  0
LINE
  5
17A
100
AcDbEntity
100
AcDbLine
  8
Display
 62
256
370
-1
  6
ByLayer
 10
112.75
 20
304.5
 30
0.0
 11
7.25
 21
304.4999999999998863
 31
0.0
  0
LINE
  5
17B
100
AcDbEntity
100
AcDbLine
  8
Platine
 62
256
370
-1
  6
ByLayer
 10
120.0
 20
300.0
 30
0.0
 11
0.0
 21
300.0
 31
0.0
  0
LINE
  5
17C
100
AcDbEntity
100
AcDbLine
  8
Platine
 62
256
370
-1
  6
ByLayer
 10
120.0
 20
298.3999999999999773
 30
0.0
 11
0.0000000000000006
 21
298.3999999999999773
 31
0.0
  0
LINE
  5
17D
100
AcDbEntity
100
AcDbLine
  8
Platine
 62
256
370
-1
  6
ByLayer
 10
120.0
 20
298.3999999999999773
 30
0.0
 11
120.0
 21
300.0
 31
0.0
  0
LINE
  5
17E
100
AcDbEntity
100
AcDbLine
  8
Platine
 62
256
370
-1
  6
DASHEDX2
 10
3.0000000000000004
 20
298.3999999999999773
 30
0.0
 11
3.0000000000000004
 21
300.0
 31
0.0
  0
LINE
  5
17F
100
AcDbEntity
100
AcDbLine
  8
Platine
 62
256
370
-1
  6
DASHEDX2
 10
117.0
 20
298.3999999999999773
 30
0.0
 11
117.0
 21
300.0
 31
0.0
  0
INSERT
  5
180
100
AcDbEntity
100
AcDbBlockReference
  8
Steckverbinder
 62
256
370
-1
  6
ByLayer
  2
wannenstecker2x20-s
 10
114.7099999999999937
 20
298.3999999999999773
 30
0.0
 44
1.0
 45
1.0
  0
LINE
  5
181
100
AcDbEntity
100
AcDbLine
  8
Display
 62
256
370
-1
  6
ByLayer
 10
150.0
 20
410.9500000000000455
 30
0.0
 11
154.0
 21
410.9500000000000455
 31
0.0
  0
LINE
  5
182
100
AcDbEntity
100
AcDbLine
  8
Display
 62
256
370
-1
  6
ByLayer
 10
150.0
 20
333.4000000000000341
 30
0.0
 11
154.0
 21
333.4000000000000341
 31
0.0
  0
LINE
  5
183
100
AcDbEntity
100
AcDbLine
  8
Display
 62
256
370
-1
  6
ByLayer
 10
154.0
 20
333.4000000000000341
 30
0.0
 11
154.0
 21
410.9500000000000455
 31
0.0
  0
LINE
  5
184
100
AcDbEntity
100
AcDbLine
  8
Platine
 62
256
370
-1
  6
ByLayer
 10
148.4000000000000057
 20
330.0
 30
0.0
 11
150.0
 21
330.0
 31
0.0
  0
LINE
  5
185
100
AcDbEntity
100
AcDbLine
  8
Platine
 62
256
370
-1
  6
ByLayer
 10
148.4000000000000057
 20
330.0
 30
0.0
 11
148.4000000000000057
 21
414.3500000000000227
 31
0.0
  0
LINE
  5
186
100
AcDbEntity
100
AcDbLine
  8
Platine
 62
256
370
-1
  6
ByLayer
 10
150.0
 20
330.0
 30
0.0
 11
150.0
 21
414.3500000000000227
 31
0.0
  0
LINE
  5
187
100
AcDbEntity
100
AcDbLine
  8
Platine
 62
256
370
-1
  6
ByLayer
 10
148.4000000000000057
 20
414.3500000000000227
 30
0.0
 11
150.0
 21
414.3500000000000227
 31
0.0
  0
LINE
  5
188
100
AcDbEntity
100
AcDbLine
  8
Platine
 62
256
370
-1
  6
DASHEDX2
 10
148.4000000000000057
 20
333.0
 30
0.0
 11
150.0
 21
333.0
 31
0.0
  0
LINE
  5
189
100
AcDbEntity
100
AcDbLine
  8
Platine
 62
256
370
-1
  6
DASHEDX2
 10
148.4000000000000057
 20
411.3500000000000227
 30
0.0
 11
150.0
 21
411.3500000000000227
 31
0.0
  0
LINE
  5
18A
100
AcDbEntity
100
AcDbLine
  8
Platine
 62
256
370
-1
  6
ByLayer
 10
133.0
 20
428.3999999999999773
 30
0.0
 11
133.0
 21
430.0
 31
0.0
  0
LINE
  5
18B
100
AcDbEntity
100
AcDbLine
  8
Display
 62
256
370
-1
  6
ByLayer
 10
125.75
 20
430.0
 30
0.0
 11
125.75
 21
434.0
 31
0.0
  0
LINE
  5
18C
100
AcDbEntity
100
AcDbLine
  8
Display
 62
256
370
-1
  6
ByLayer
 10
7.2500000000000009
 20
430.0
 30
0.0
 11
7.2500000000000009
 21
434.0
 31
0.0
  0
LINE
  5
18D
100
AcDbEntity
100
AcDbLine
  8
Display
 62
256
370
-1
  6
ByLayer
 10
125.75
 20
434.0
 30
0.0
 11
7.2500000000000009
 21
434.0
 31
0.0
  0
LINE
  5
18E
100
AcDbEntity
100
AcDbLine
  8
Platine
 62
256
370
-1
  6
ByLayer
 10
133.0
 20
428.3999999999999773
 30
0.0
 11
-0.0000000000000001
 21
428.3999999999999773
 31
0.0
  0
LINE
  5
18F
100
AcDbEntity
100
AcDbLine
  8
Platine
 62
256
370
-1
  6
ByLayer
 10
-0.0000000000000001
 20
428.3999999999999773
 30
0.0
 11
0.0
 21
430.0
 31
0.0
  0
LINE
  5
190
100
AcDbEntity
100
AcDbLine
  8
Platine
 62
256
370
-1
  6
ByLayer
 10
133.0
 20
430.0
 30
0.0
 11
0.0
 21
430.0
 31
0.0
  0
LINE
  5
191
100
AcDbEntity
100
AcDbLine
  8
Platine
 62
256
370
-1
  6
DASHEDX2
 10
130.0
 20
428.3999999999999773
 30
0.0
 11
130.0
 21
430.0
 31
0.0
  0
LINE
  5
192
100
AcDbEntity
100
AcDbLine
  8
Platine
 62
256
370
-1
  6
DASHEDX2
 10
3.0000000000000009
 20
428.3999999999999773
 30
0.0
 11
3.0000000000000009
 21
430.0
 31
0.0
  0
INSERT
  5
193
100
AcDbEntity
100
AcDbBlockReference
  8
Steckverbinder
 62
256
370
-1
  6
ByLayer
  2
wannenstecker2x20-s
 10
127.710000000000008
 20
428.3999999999999773
 30
0.0
 44
1.0
 45
1.0
  0
LINE
  5
194
100
AcDbEntity
100
AcDbLine
  8
Platine
 62
256
370
-1
  6
ByLayer
 10
198.3499999999999943
 20
568.0
 30
0.0
 11
200.0
 21
568.0
 31
0.0
  0
LINE
  5
195
100
AcDbEntity
100
AcDbLine
  8
Platine
 62
256
370
-1
  6
ByLayer
 10
198.3499999999999943
 20
460.0
 30
0.0
 11
198.3499999999999943
 21
568.0
 31
0.0
  0
LINE
  5
196
100
AcDbEntity
100
AcDbLine
  8
Platine
 62
256
370
-1
  6
ByLayer
 10
198.3499999999999943
 20
460.0
 30
0.0
 11
200.0
 21
460.0
 31
0.0
  0
LINE
  5
197
100
AcDbEntity
100
AcDbLine
  8
Platine
 62
256
370
-1
  6
ByLayer
 10
200.0
 20
460.0
 30
0.0
 11
200.0
 21
568.0
 31
0.0
  0
LINE
  5
198
100
AcDbEntity
100
AcDbLine
  8
Display
 62
256
370
-1
  6
ByLayer
 10
200.0
 20
464.0
 30
0.0
 11
207.0
 21
464.0
 31
0.0
  0
LINE
  5
199
100
AcDbEntity
100
AcDbLine
  8
Display
 62
256
370
-1
  6
ByLayer
 10
207.0
 20
464.0
 30
0.0
 11
207.0
 21
564.0
 31
0.0
  0
LINE
  5
19A
100
AcDbEntity
100
AcDbLine
  8
Display
 62
256
370
-1
  6
ByLayer
 10
200.0
 20
564.0
 30
0.0
 11
207.0
 21
564.0
 31
0.0
  0
LINE
  5
19B
100
AcDbEntity
100
AcDbLine
  8
Platine
 62
256
370
-1
  6
DASHEDX2
 10
198.3499999999999943
 20
565.0
 30
0.0
 11
200.0
 21
565.0
 31
0.0
  0
LINE
  5
19C
100
AcDbEntity
100
AcDbLine
  8
Platine
 62
256
370
-1
  6
DASHEDX2
 10
198.3499999999999943
 20
463.0
 30
0.0
 11
200.0
 21
463.0
 31
0.0
  0
LINE
  5
19D
100
AcDbEntity
100
AcDbLine
  8
Platine
 62
256
370
-1
  6
ByLayer
 10
-0.0000000000000002
 20
578.3500000000000227
 30
0.0
 11
0.0
 21
580.0
 31
0.0
  0
LINE
  5
19E
100
AcDbEntity
100
AcDbLine
  8
Display
 62
256
370
-1
  6
ByLayer
 10
8.0500000000000416
 20
580.0
 30
0.0
 11
8.0500000000000398
 21
587.0
 31
0.0
  0
LINE
  5
19F
100
AcDbEntity
100
AcDbLine
  8
Display
 62
256
370
-1
  6
ByLayer
 10
172.9500000000000171
 20
587.0
 30
0.0
 11
8.0500000000000398
 21
587.0
 31
0.0
  0
LINE
  5
1A0
100
AcDbEntity
100
AcDbLine
  8
Platine
 62
256
370
-1
  6
ByLayer
 10
181.0
 20
580.0
 30
0.0
 11
0.0
 21
580.0
 31
0.0
  0
LINE
  5
1A1
100
AcDbEntity
100
AcDbLine
  8
Platine
 62
256
370
-1
  6
ByLayer
 10
181.0
 20
578.3500000000000227
 30
0.0
 11
181.0
 21
580.0
 31
0.0
  0
LINE
  5
1A2
100
AcDbEntity
100
AcDbLine
  8
Platine
 62
256
370
-1
  6
ByLayer
 10
181.0
 20
578.3500000000000227
 30
0.0
 11
-0.0000000000000002
 21
578.3500000000000227
 31
0.0
  0
LINE
  5
1A3
100
AcDbEntity
100
AcDbLine
  8
Display
 62
256
370
-1
  6
ByLayer
 10
172.9500000000000171
 20
580.0
 30
0.0
 11
172.9500000000000171
 21
587.0
 31
0.0
  0
LINE
  5
1A4
100
AcDbEntity
100
AcDbLine
  8
Platine
 62
256
370
-1
  6
DASHEDX2
 10
3.0000000000000009
 20
578.3500000000000227
 30
0.0
 11
3.0000000000000009
 21
580.0
 31
0.0
  0
LINE
  5
1A5
100
AcDbEntity
100
AcDbLine
  8
Platine
 62
256
370
-1
  6
DASHEDX2
 10
178.0
 20
578.3500000000000227
 30
0.0
 11
178.0
 21
580.0
 31
0.0
  0
INSERT
  5
1A6
100
AcDbEntity
100
AcDbBlockReference
  8
Steckverbinder
 62
256
370
-1
  6
ByLayer
  2
wannenstecker2x20-s
 10
175.7299999999999898
 20
578.3500000000000227
 30
0.0
 44
1.0
 45
1.0
  0
DIMENSION
  5
1A7
100
AcDbEntity
  8
0
 62
256
370
-1
  6
ByLayer
100
AcDbDimension
 10
240.0
 20
60.0
 30
0.0
 11
190.0
 21
70.0
 31
0.0
 70
0
 71
5
 72
0
 41
1.0
 42
0.0
  1
100mm
  3
Standard
100
AcDbAlignedDimension
 13
140.0
 23
50.0
 33
0.0
 14
240.0
 24
50.0
 34
0.0
 50
0.0
100
AcDbRotatedDimension
  0
ENDSEC
  0
SECTION
  2
OBJECTS
  0
DICTIONARY
  5
C
100
AcDbDictionary
280
0
281
1
  3
ACAD_GROUP
350
D
  3
ACAD_LAYOUT
350
1A
  3
ACAD_MLINESTYLE
350
17
  3
ACAD_PLOTSETTINGS
350
19
  3
ACAD_PLOTSTYLENAME
350
E
  3
AcDbVariableDictionary
350
1A8
  0
DICTIONARY
  5
D
100
AcDbDictionary
280
0
281
1
  0
ACDBDICTIONARYWDFLT
  5
E
100
AcDbDictionary
281
1
  3
Normal
350
F
100
AcDbDictionaryWithDefault
340
F
  0
ACDBPLACEHOLDER
  5
F
  0
DICTIONARY
  5
17
100
AcDbDictionary
280
0
281
1
  3
Standard
350
18
  0
MLINESTYLE
  5
18
100
AcDbMlineStyle
  2
STANDARD
 70
0
  3

 62
256
 51
90.0
 52
90.0
 71
2
 49
0.5
 62
256
  6
BYLAYER
 49
-0.5
 62
256
  6
BYLAYER
  0
DICTIONARY
  5
19
100
AcDbDictionary
280
0
281
1
  0
DICTIONARY
  5
1A
100
AcDbDictionary
281
1
  3
Layout1
350
1E
  3
Layout2
350
26
  3
Model
350
22
  0
LAYOUT
  5
1E
100
AcDbPlotSettings
  1

  2
C:\Program Files\AutoCAD 2002\plotters\DWF ePlot (optimized for plotting).pc3
  4

  6

 40
0.0
 41
0.0
 42
0.0
 43
0.0
 44
0.0
 45
0.0
 46
0.0
 47
0.0
 48
0.0
 49
0.0
140
0.0
141
0.0
142
1.0
143
1.0
 70
688
 72
0
 73
0
 74
5
  7

 75
16
147
1.0
148
0.0
149
0.0
100
AcDbLayout
  1
Layout1
 70
1
 71
1
 10
0.0
 20
0.0
 11
420.0
 21
297.0
 12
0.0
 22
0.0
 32
0.0
 14
100000000000000000000.0
 24
100000000000000000000.0
 34
100000000000000000000.0
 15
-100000000000000000000.0
 25
-100000000000000000000.0
 35
-100000000000000000000.0
146
0.0
 13
0.0
 23
0.0
 33
0.0
 16
1.0
 26
0.0
 36
0.0
 17
0.0
 27
1.0
 37
0.0
 76
0
330
1B
  0
LAYOUT
  5
22
100
AcDbPlotSettings
  1

  2
C:\Program Files\AutoCAD 2002\plotters\DWF ePlot (optimized for plotting).pc3
  4

  6

 40
0.0
 41
0.0
 42
0.0
 43
0.0
 44
0.0
 45
0.0
 46
0.0
 47
0.0
 48
0.0
 49
0.0
140
0.0
141
0.0
142
1.0
143
1.0
 70
1712
 72
0
 73
0
 74
0
  7

 75
0
147
1.0
148
0.0
149
0.0
100
AcDbLayout
  1
Model
 70
1
 71
0
 10
0.0
 20
0.0
 11
12.0
 21
9.0
 12
0.0
 22
0.0
 32
0.0
 14
0.0
 24
0.0
 34
0.0
 15
0.0
 25
0.0
 35
0.0
146
0.0
 13
0.0
 23
0.0
 33
0.0
 16
1.0
 26
0.0
 36
0.0
 17
0.0
 27
1.0
 37
0.0
 76
0
330
1F
  0
LAYOUT
  5
26
100
AcDbPlotSettings
  1

  2
C:\Program Files\AutoCAD 2002\plotters\DWF ePlot (optimized for plotting).pc3
  4

  6

 40
0.0
 41
0.0
 42
0.0
 43
0.0
 44
0.0
 45
0.0
 46
0.0
 47
0.0
 48
0.0
 49
0.0
140
0.0
141
0.0
142
1.0
143
1.0
 70
688
 72
0
 73
0
 74
5
  7

 75
16
147
1.0
148
0.0
149
0.0
100
AcDbLayout
  1
Layout2
 70
1
 71
2
 10
0.0
 20
0.0
 11
12.0
 21
9.0
 12
0.0
 22
0.0
 32
0.0
 14
0.0
 24
0.0
 34
0.0
 15
0.0
 25
0.0
 35
0.0
146
0.0
 13
0.0
 23
0.0
 33
0.0
 16
1.0
 26
0.0
 36
0.0
 17
0.0
 27
1.0
 37
0.0
 76
0
330
23
  0
DICTIONARY
  5
1A8
100
AcDbDictionary
281
1
  3
DIMASSOC
350
1AA
  3
HIDETEXT
350
1A9
  0
DICTIONARYVAR
  5
1A9
100
DictionaryVariables
280
0
  1
2
  0
DICTIONARYVAR
  5
1AA
100
DictionaryVariables
280
0
  1
1
  0
ENDSEC
  0
EOF
